Direct Download XXL Cocks For Hungry Blondies - 2016 COLMAX Web-DL Split Scenes mp4 torrent

download torrent
Size: 1.4 GB
Downloaded: 165
Hits: 321
     
Lindsey Olsen, Kimber Delice, Lucy Heart, Chloe Lacourt, Jarushka Ross.
To make this movie, Anissa Kate made ??the sacrifice to get behind the camera otherwise no image could have been properly recorded. Imagine giant cocks and beautiful blonde nymphets gathered in a dreamy villa. How could you not participate? Anissa kept it cool and the result is some very exceptional porn!

Format                                   : MPEG-4
Format profile                           : Base Media
Codec ID                                 : isom
File size                                : 284 MiB
Duration                                 : 18mn 29s
Overall bit rate mode                    : Variable
Overall bit rate                         : 2 144 Kbps
Encoded date                             : UTC 2016-04-03 17:32:27
Tagged date                              : UTC 2016-04-03 17:32:27
Writing application                      : Lavf51.12.1
Video
ID                                       : 1
Format                                   : AVC
Format/Info                              : Advanced Video Codec
Format profile                           : [email protected]
Format settings, CABAC                   : No
Format settings, ReFrames                : 1 frame
Format settings, GOP                     : M=1, N=12
Codec ID                                 : avc1
Codec ID/Info                            : Advanced Video Coding
Duration                                 : 18mn 29s
Bit rate                                 : 2 012 Kbps
Width                                    : 852 pixels
Height                                   : 480 pixels
Display aspect ratio                     : 16:9
Frame rate mode                          : Constant
Frame rate                               : 30.000 fps
Color space                              : YUV
Chroma subsampling                       : 4:2:0
Bit depth                                : 8 bits
Scan type                                : Progressive
Bits/(Pixel*Frame)                       : 0.164
Stream size                              : 266 MiB (94%)
Language                                 : English
Encoded date                             : UTC 2016-04-03 17:32:27
Tagged date                              : UTC 2016-04-03 17:32:27
Audio
ID                                       : 2
Format                                   : AAC
Format/Info                              : Advanced Audio Codec
Format profile                           : LC
Codec ID                                 : 40
Duration                                 : 18mn 28s
Bit rate mode                            : Variable
Bit rate                                 : 128 Kbps
Channel(s)                               : 2 channels
Channel positions                        : Front: L R
Sampling rate                            : 44.1 KHz
Compression mode                         : Lossy
Stream size                              : 16.9 MiB (6%)
Language                                 : English
Encoded date                             : UTC 2016-04-03 17:32:27
Tagged date                              : UTC 2016-04-03 17:32:27


NEW adulttorrent.org - Exclusive video only

Related Torrents
Torrent Name   AGE FILES SIZE

 Date: 06/01/18 00:15   in : XXX 

534 days 1

 Date: 06/01/18 00:12   in : XXX 

534 days 1

 Date: 06/01/18 00:09   in : XXX 

534 days 1

 Date: 06/01/18 00:07   in : XXX 

534 days 1

 Date: 06/01/18 00:04   in : XXX 

534 days 1

 Date: 06/01/18 00:03   in : XXX 

534 days 1

 Date: 06/01/18 00:02   in : XXX 

534 days 1

 Date: 06/01/18 00:02   in : XXX 

534 days 1

 Date: 05/31/18 23:59   in : XXX 

534 days 1

 Date: 05/31/18 23:51   in : XXX 

534 days 1

 Date: 05/31/18 23:51   in : XXX 

534 days 1

 Date: 05/31/18 23:50   in : XXX 

534 days 1