Direct Download X-Art.15.07.05.Riley.Reid.Are.You.Man.Enough.XXX.1080p.MP4-KTR torrent

download torrent
Size: 515.5 MB
Downloaded: 161
Hits: 413

X-Art.15.07.05.Riley.Reid.Are.You.Man.Enough.XXX.1080p.MP4-KTR
Genre.......: Adult
Files.......: 37
Video.......: MP4
Date........: 2015-07-06
URL.........: http://www.x-art.com/

Video
ID                                       : 1
Format                                   : AVC
Format/Info                              : Advanced Video Codec
Format profile                           : [email protected]
Format settings, CABAC                   : Yes
Format settings, ReFrames                : 2 frames
Codec ID                                 : avc1
Codec ID/Info                            : Advanced Video Coding
Duration                                 : 21mn 31s
Bit rate                                 : 3 178 Kbps
Width                                    : 1 920 pixels
Height                                   : 1 080 pixels
Display aspect ratio                     : 16:9
Frame rate mode                          : Variable
Frame rate                               : 23.976 fps
Minimum frame rate                       : 23.949 fps
Maximum frame rate                       : 24.000 fps
Color space                              : YUV
Chroma subsampling                       : 4:2:0
Bit depth                                : 8 bits
Scan type                                : Progressive
Bits/(Pixel*Frame)                       : 0.064
Stream size                              : 489 MiB (95%)
Writing library                          : x264 core 142
Encoding settings                        : cabac=1 / ref=2 / deblock=1:0:0 / analyse=0x1:0x111 / me=hex / subme=7 / psy=1 / psy_rd=1.00:0.00 / mixed_ref=1 / me_range=16 / chroma_me=1 / trellis=1 / 8x8dct=0 / cqm=0 / deadzone=21,11 / fast_pskip=1 / chroma_qp_offset=-2 / threads=12 / lookahead_threads=2 / sliced_threads=0 / nr=0 / decimate=1 / interlaced=0 / bluray_compat=0 / constrained_intra=0 / bframes=3 / b_pyramid=0 / b_adapt=1 / b_bias=0 / direct=1 / weightb=1 / open_gop=0 / weightp=2 / keyint=240 / keyint_min=24 / scenecut=40 / intra_refresh=0 / rc_lookahead=40 / rc=crf / mbtree=1 / crf=22.0 / qcomp=0.60 / qpmin=0 / qpmax=69 / qpstep=4 / vbv_maxrate=14000 / vbv_bufsize=14000 / crf_max=0.0 / nal_hrd=none / filler=0 / ip_ratio=1.40 / aq=1:1.00
Encoded date                             : UTC 1904-01-01 00:00:00
Tagged date                              : UTC 1904-01-01 00:00:00
Color range                              : Limited
Color primaries                          : BT.709
Transfer characteristics                 : BT.709
Matrix coefficients                      : BT.709
Audio
ID                                       : 2
Format                                   : AAC
Format/Info                              : Advanced Audio Codec
Format profile                           : LC
Codec ID                                 : 40
Duration                                 : 21mn 32s
Duration_LastFrame                       : -20ms
Bit rate mode                            : Constant
Bit rate                                 : 163 Kbps
Channel(s)                               : 2 channels
Channel positions                        : Front: L R
Sampling rate                            : 48.0 KHz
Compression mode                         : Lossy
Stream size                              : 25.1 MiB (5%)
Language                                 : English
Encoded date                             : UTC 1904-01-01 00:00:00
Tagged date                              : UTC 1904-01-01 00:00:00


Related Torrents
Torrent Name   AGE FILES SIZE

 Date: 05/29/17 23:37   in : XXX 

49 min 5 1.5 GB

 Date: 05/29/17 23:19   in : XXX 

1 hour 1

 Date: 05/29/17 23:12   in : XXX 

1 hour 1

 Date: 05/29/17 23:10   in : XXX 

1 hour 1

 Date: 05/29/17 23:05   in : XXX 

1 hour 1

 Date: 05/29/17 23:03   in : XXX 

1 hour 1 2.7 GB

 Date: 05/29/17 22:55   in : XXX 

1 hour 5 3.2 GB

 Date: 05/29/17 22:52   in : XXX 

1 hour 1 1.5 GB

 Date: 05/29/17 22:33   in : XXX 

1 hour 1 1.1 GB

 Date: 05/29/17 22:25   in : XXX 

2 hours 5 4.1 GB

 Date: 05/29/17 22:13   in : XXX 

2 hours 1

 Date: 05/29/17 22:01   in : XXX 

2 hours 1