NEW BEST ADULT Torrent..Tsss....only for you!

Direct Download PlayboyPlus.16.04.14.Brittany.Kelly.And.Brandi.Kelly.Double.Trouble.XXX.1080p.MP4-KTR torrent

download torrent
Size: 471.9 MB
Downloaded: 66
Hits: 2501

PlayboyPlus.16.04.14.Brittany.Kelly.And.Brandi.Kelly.Double.
Trouble.XXX.1080p.MP4-KTR
Genre.......: Adult
Files.......: 35
Video.......: MP4
Date........: 2016-04-14
URL.........: http://plus.playboy.com/

Video
ID                                       : 1
Format                                   : AVC
Format/Info                              : Advanced Video Codec
Format profile                           : [email protected]
Format settings, CABAC                   : Yes
Format settings, ReFrames                : 5 frames
Codec ID                                 : avc1
Codec ID/Info                            : Advanced Video Coding
Duration                                 : 10mn 32s
Bit rate                                 : 6 000 Kbps
Width                                    : 1 920 pixels
Height                                   : 1 080 pixels
Display aspect ratio                     : 16:9
Frame rate mode                          : Constant
Frame rate                               : 29.970 (30000/1001) fps
Color space                              : YUV
Chroma subsampling                       : 4:2:0
Bit depth                                : 8 bits
Scan type                                : Progressive
Bits/(Pixel*Frame)                       : 0.097
Stream size                              : 457 MiB (97%)
Writing library                          : x264 core 146 r2538 121396c
Encoding settings                        : cabac=1 / ref=5 / deblock=1:0:0 / analyse=0x3:0x113 / me=umh / subme=8 / psy=1 / psy_rd=1.00:0.00 / mixed_ref=1 / me_range=16 / chroma_me=1 / trellis=1 / 8x8dct=1 / cqm=0 / deadzone=21,11 / fast_pskip=1 / chroma_qp_offset=-2 / threads=48 / lookahead_threads=8 / sliced_threads=0 / nr=0 / decimate=1 / interlaced=0 / bluray_compat=0 / constrained_intra=0 / bframes=3 / b_pyramid=2 / b_adapt=2 / b_bias=0 / direct=3 / weightb=1 / open_gop=0 / weightp=2 / keyint=60 / keyint_min=6 / scenecut=40 / intra_refresh=0 / rc_lookahead=50 / rc=abr / mbtree=1 / bitrate=6000 / ratetol=1.0 / qcomp=0.60 / qpmin=0 / qpmax=69 / qpstep=4 / ip_ratio=1.40 / aq=1:1.00
Encoded date                             : UTC 1904-01-01 00:00:00
Tagged date                              : UTC 1904-01-01 00:00:00
Audio
ID                                       : 2
Format                                   : AAC
Format/Info                              : Advanced Audio Codec
Format profile                           : LC
Codec ID                                 : 40
Duration                                 : 10mn 32s
Duration_LastFrame                       : -15ms
Bit rate mode                            : Constant
Bit rate                                 : 192 Kbps
Channel(s)                               : 2 channels
Channel positions                        : Front: L R
Sampling rate                            : 48.0 KHz
Frame rate                               : 46.875 fps (1024 spf)
Compression mode                         : Lossy
Stream size                              : 14.5 MiB (3%)
Default                                  : Yes
Alternate group                          : 1
Encoded date                             : UTC 1904-01-01 00:00:00
Tagged date                              : UTC 1904-01-01 00:00:00

NEW adulttorrent.org - Exclusive video only

Related Torrents
Torrent Name   AGE FILES SIZE

 Date: 03/19/19 03:39   in : Amateur 

1 day 1 315.9 MB

 Date: 03/18/19 20:45   in : Amateur 

1 day 4 2.2 GB

 Date: 03/18/19 14:44   in : Amateur 

2 days 1 1.7 GB

 Date: 03/18/19 14:36   in : Amateur 

2 days 1 2.1 GB

 Date: 03/16/19 17:34   in : Amateur 

4 days 1 207.3 MB

 Date: 03/16/19 12:57   in : Amateur 

4 days 1 211.5 MB

 Date: 03/15/19 16:31   in : Amateur 

5 days 1 1.3 GB

 Date: 03/15/19 16:12   in : Amateur 

5 days 1 1.2 GB

 Date: 03/15/19 16:06   in : Amateur 

5 days 1 2.5 GB

 Date: 03/13/19 16:32   in : Amateur 

7 days 1 547.9 MB

 Date: 03/13/19 13:20   in : Amateur 

7 days 1 113.3 MB

 Date: 03/13/19 12:34   in : Amateur 

7 days 1 41.3 MB