Direct Download Legal.Tender.XXX.DVDRip.x264-XCiTE torrent

download torrent
Size: 1.1 GB
Downloaded: 43
Hits: 121

XCiTE
INFO
Legal Tender
Cutiepie Films
Size ..... 24/50mb            Audio . AAC-LC vbr
Video ... 1425 kbs            CRF ........... 19
Store ... 08.27.15            Runtime .. 109 min
Source ....... DVD            Format ...... x264
Category ... Gonzo            Resolution 704x400
LINK
http://www.cduniverse.com/productinfo.asp?pid=9931484&style=ice
PLOT                                                         CAST
NOTE                                                         NOTE

Video
ID                                       : 1
Format                                   : AVC
Format/Info                              : Advanced Video Codec
Format profile                           : [email protected]
Format settings, CABAC                   : Yes
Format settings, ReFrames                : 5 frames
Codec ID                                 : avc1
Codec ID/Info                            : Advanced Video Coding
Duration                                 : 1h 48mn
Bit rate                                 : 1 282 Kbps
Width                                    : 704 pixels
Height                                   : 400 pixels
Display aspect ratio                     : 16:9
Frame rate mode                          : Variable
Frame rate                               : 29.970 fps
Minimum frame rate                       : 29.950 fps
Maximum frame rate                       : 29.970 fps
Color space                              : YUV
Chroma subsampling                       : 4:2:0
Bit depth                                : 8 bits
Scan type                                : Progressive
Bits/(Pixel*Frame)                       : 0.152
Stream size                              : 998 MiB (89%)
Encoded date                             : UTC 1904-01-01 00:00:00
Tagged date                              : UTC 1904-01-01 00:00:00
Audio
ID                                       : 2
Format                                   : AAC
Format/Info                              : Advanced Audio Codec
Format profile                           : LC
Codec ID                                 : 40
Duration                                 : 1h 48mn
Duration_FirstFrame                      : -21ms
Bit rate mode                            : Constant
Bit rate                                 : 144 Kbps
Channel(s)                               : 2 channels
Channel positions                        : Front: L R
Sampling rate                            : 48.0 KHz
Compression mode                         : Lossy
Stream size                              : 112 MiB (10%)
Encoded date                             : UTC 1904-01-01 00:00:00
Tagged date                              : UTC 1904-01-01 00:00:00

Related Torrents
Torrent Name   AGE FILES SIZE

 Date: 04/29/16 15:33   in : Lesbian 

335 days 2 332.5 MB

 Date: 04/29/16 10:07   in : Lesbian 

335 days 1 332.5 MB

 Date: 04/29/16 06:07   in : Lesbian 

335 days 3 1.2 GB

 Date: 04/27/16 18:02   in : Lesbian 

336 days 3 1,008.6 MB

 Date: 04/27/16 17:58   in : Lesbian 

336 days 1 310.2 MB

 Date: 04/27/16 10:17   in : Lesbian 

337 days 1 365.9 MB

 Date: 04/27/16 05:55   in : Lesbian 

337 days 5 461.4 MB

 Date: 04/27/16 03:55   in : Lesbian 

337 days 3 1.1 GB

 Date: 04/26/16 19:44   in : Lesbian 

337 days 1

 Date: 04/26/16 15:03   in : Lesbian 

338 days 1 293.3 MB

 Date: 04/26/16 14:18   in : Lesbian 

338 days 1 1 GB

 Date: 04/26/16 04:14   in : Lesbian 

338 days 1