Direct Download VintageFlash.15.10.30.Red.Quick.One.Then.To.The.Pub.XXX.1080p.MP4-KTR torrent

download torrent
Size: 1 GB
Downloaded: 138
Hits: 297

VintageFlash.15.10.30.Red.Quick.One.Then.To.The.Pub.XXX.1080p.
MP4-KTR
Genre.......: Adult
Files.......: 23
Video.......: MP4
Date........: 2015-10-30
URL.........: http://www.vintageflash.com/

Video
ID                                       : 1
Format                                   : AVC
Format/Info                              : Advanced Video Codec
Format profile                           : [email protected]
Format settings, CABAC                   : Yes
Format settings, ReFrames                : 3 frames
Codec ID                                 : avc1
Codec ID/Info                            : Advanced Video Coding
Duration                                 : 16mn 6s
Bit rate mode                            : Variable
Bit rate                                 : 8 831 Kbps
Maximum bit rate                         : 9 500 Kbps
Width                                    : 1 920 pixels
Height                                   : 1 080 pixels
Display aspect ratio                     : 16:9
Frame rate mode                          : Constant
Frame rate                               : 25.000 fps
Standard                                 : PAL
Color space                              : YUV
Chroma subsampling                       : 4:2:0
Bit depth                                : 8 bits
Scan type                                : Progressive
Bits/(Pixel*Frame)                       : 0.170
Stream size                              : 1 018 MiB (96%)
Language                                 : English
Encoded date                             : UTC 1904-01-01 00:00:00
Tagged date                              : UTC 1904-01-01 00:00:00
Color range                              : Limited
Color primaries                          : BT.709
Transfer characteristics                 : BT.709
Matrix coefficients                      : BT.709
Audio
ID                                       : 2
Format                                   : AAC
Format/Info                              : Advanced Audio Codec
Format profile                           : LC
Codec ID                                 : 40
Duration                                 : 16mn 6s
Bit rate mode                            : Constant
Bit rate                                 : 317 Kbps
Channel(s)                               : 2 channels
Channel positions                        : Front: L R
Sampling rate                            : 48.0 KHz
Compression mode                         : Lossy
Stream size                              : 36.6 MiB (3%)
Language                                 : English
Encoded date                             : UTC 1904-01-01 00:00:00
Tagged date                              : UTC 1904-01-01 00:00:00


Related Torrents
Torrent Name   AGE FILES SIZE

 Date: 04/27/17 23:47   in : XXX 

7 hours 1 1.1 GB

 Date: 04/27/17 23:44   in : XXX 

7 hours 1

 Date: 04/27/17 23:12   in : XXX 

8 hours 1

 Date: 04/27/17 22:55   in : XXX 

8 hours 1

 Date: 04/27/17 22:54   in : XXX 

8 hours 1 2.8 GB

 Date: 04/27/17 22:44   in : XXX 

8 hours 1 198.2 MB

 Date: 04/27/17 22:38   in : XXX 

8 hours 1 1.1 GB

 Date: 04/27/17 22:38   in : XXX 

8 hours 1

 Date: 04/27/17 22:19   in : XXX 

9 hours 1

 Date: 04/27/17 22:16   in : XXX 

9 hours 1

 Date: 04/27/17 22:09   in : XXX 

9 hours 1 2.6 GB

 Date: 04/27/17 21:48   in : XXX 

9 hours 5 2.1 GB