Direct Download Tushy.Lyra.Law.Young.Rebelious.Girl.Does.Anal.with.Therapist.mp4 torrent

download torrent
Size: 337.8 MB
Downloaded: 114
Hits: 113


Video
ID                                       : 1
Format                                   : AVC
Format/Info                              : Advanced Video Codec
Format profile                           : [email protected]
Format settings, CABAC                   : Yes
Format settings, ReFrames                : 3 frames
Codec ID                                 : avc1
Codec ID/Info                            : Advanced Video Coding
Duration                                 : 43mn 16s
Bit rate                                 : 1 024 Kbps
Maximum bit rate                         : 2 806 Kbps
Width                                    : 854 pixels
Height                                   : 480 pixels
Display aspect ratio                     : 16:9
Frame rate mode                          : Constant
Frame rate                               : 23.976 fps
Color space                              : YUV
Chroma subsampling                       : 4:2:0
Bit depth                                : 8 bits
Scan type                                : Progressive
Bits/(Pixel*Frame)                       : 0.104
Stream size                              : 317 MiB (94%)
Writing library                          : Zencoder Video Encoding System
Encoded date                             : UTC 2016-05-28 07:25:00
Tagged date                              : UTC 2016-05-28 07:50:23
Color primaries                          : BT.709-5, BT.1361, IEC 61966-2-4, SMPTE RP177
Transfer characteristics                 : BT.709-5, BT.1361
Matrix coefficients                      : BT.709-5, BT.1361, IEC 61966-2-4 709, SMPTE RP177
Audio
ID                                       : 2
Format                                   : AAC
Format/Info                              : Advanced Audio Codec
Format profile                           : LC
Codec ID                                 : 40
Duration                                 : 43mn 16s
Bit rate mode                            : Variable
Bit rate                                 : 64.0 Kbps
Maximum bit rate                         : 70.4 Kbps
Channel(s)                               : 2 channels
Channel positions                        : Front: L R
Sampling rate                            : 48.0 KHz
Compression mode                         : Lossy
Stream size                              : 19.8 MiB (6%)
Encoded date                             : UTC 2016-05-28 07:14:46
Tagged date                              : UTC 2016-05-28 07:50:23


NEW adulttorrent.org - Exclusive video only

Related Torrents
Torrent Name   AGE FILES SIZE

 Date: 06/01/18 00:15   in : XXX 

534 days 1

 Date: 06/01/18 00:12   in : XXX 

534 days 1

 Date: 06/01/18 00:09   in : XXX 

534 days 1

 Date: 06/01/18 00:07   in : XXX 

534 days 1

 Date: 06/01/18 00:04   in : XXX 

534 days 1

 Date: 06/01/18 00:03   in : XXX 

534 days 1

 Date: 06/01/18 00:02   in : XXX 

534 days 1

 Date: 06/01/18 00:02   in : XXX 

534 days 1

 Date: 05/31/18 23:59   in : XXX 

534 days 1

 Date: 05/31/18 23:51   in : XXX 

534 days 1

 Date: 05/31/18 23:51   in : XXX 

534 days 1

 Date: 05/31/18 23:50   in : XXX 

534 days 1