Direct Download JulesJordan.Ryan.Conner.Ryan.Conner.s.Seasoned.Ass.Hole.Gets.A.Creampie.mp4 torrent

download torrent
Size: 405.3 MB
Downloaded: 31
Hits: 101


Video
ID                                       : 1
Format                                   : AVC
Format/Info                              : Advanced Video Codec
Format profile                           : [email protected]
Format settings, CABAC                   : Yes
Format settings, ReFrames                : 4 frames
Codec ID                                 : avc1
Codec ID/Info                            : Advanced Video Coding
Duration                                 : 26mn 35s
Bit rate mode                            : Variable
Bit rate                                 : 2 000 Kbps
Width                                    : 992 pixels
Height                                   : 558 pixels
Display aspect ratio                     : 16:9
Frame rate mode                          : Constant
Frame rate                               : 29.970 fps
Color space                              : YUV
Chroma subsampling                       : 4:2:0
Bit depth                                : 8 bits
Scan type                                : Progressive
Bits/(Pixel*Frame)                       : 0.121
Stream size                              : 379 MiB (94%)
Writing library                          : x264 core 142
Encoding settings                        : cabac=1 / ref=3 / deblock=1:0:0 / analyse=0x3:0x113 / me=hex / subme=7 / psy=1 / psy_rd=1.00:0.00 / mixed_ref=1 / me_range=16 / chroma_me=1 / trellis=1 / 8x8dct=1 / cqm=0 / deadzone=21,11 / fast_pskip=1 / chroma_qp_offset=-2 / threads=12 / lookahead_threads=2 / sliced_threads=0 / nr=0 / decimate=1 / interlaced=0 / bluray_compat=0 / constrained_intra=0 / bframes=3 / b_pyramid=2 / b_adapt=1 / b_bias=0 / direct=1 / weightb=1 / open_gop=0 / weightp=2 / keyint=300 / keyint_min=29 / scenecut=40 / intra_refresh=0 / rc_lookahead=40 / rc=abr / mbtree=1 / bitrate=2000 / ratetol=1.0 / qcomp=0.60 / qpmin=10 / qpmax=51 / qpstep=4 / ip_ratio=1.40 / aq=1:1.00
Audio
ID                                       : 2
Format                                   : AAC
Format/Info                              : Advanced Audio Codec
Format profile                           : LC
Codec ID                                 : 40
Duration                                 : 26mn 35s
Duration_LastFrame                       : -3ms
Bit rate mode                            : Constant
Bit rate                                 : 128 Kbps
Channel(s)                               : 2 channels
Channel positions                        : Front: L R
Sampling rate                            : 48.0 KHz
Compression mode                         : Lossy
Stream size                              : 24.3 MiB (6%)

Related Torrents
Torrent Name   AGE FILES SIZE

 Date: 04/29/16 20:59   in : Hardcore 

536 days 1

 Date: 04/29/16 20:01   in : Hardcore 

536 days 1 699 MB

 Date: 04/29/16 16:31   in : Hardcore 

537 days 1 360.1 MB

 Date: 04/29/16 15:31   in : Hardcore 

537 days 1 1,023.8 MB

 Date: 04/29/16 15:21   in : Hardcore 

537 days 1

 Date: 04/29/16 15:17   in : Hardcore 

537 days 1

 Date: 04/29/16 15:12   in : Hardcore 

537 days 1 966.2 MB

 Date: 04/29/16 15:11   in : Hardcore 

537 days 1 238.5 MB

 Date: 04/29/16 15:04   in : Hardcore 

537 days 1 331.8 MB

 Date: 04/29/16 13:34   in : Hardcore 

537 days 1 242.6 MB

 Date: 04/29/16 10:37   in : Hardcore 

537 days 1 298.1 MB

 Date: 04/29/16 10:29   in : Hardcore 

537 days 1