Direct Download TheArtOfBlowjob.15.09.25.Sensual.Wet.Shower.Blowjob.XXX.1080p.MP4-KTR torrent

download torrent
Size: 279.5 MB
Downloaded: 239
Hits: 462

TheArtOfBlowjob.15.09.25.Sensual.Wet.Shower.Blowjob.XXX.1080p.
MP4-KTR
Genre.......: Adult
Files.......: 20
Video.......: MP4
Date........: 2015-09-25
URL.........: http://www.theartofblowjob.com/

Video
ID                                       : 1
Format                                   : AVC
Format/Info                              : Advanced Video Codec
Format profile                           : [email protected]
Format settings, CABAC                   : No
Format settings, ReFrames                : 2 frames
Format settings, GOP                     : M=1, N=72
Codec ID                                 : avc1
Codec ID/Info                            : Advanced Video Coding
Duration                                 : 6mn 18s
Bit rate                                 : 6 032 Kbps
Width                                    : 1 920 pixels
Height                                   : 1 080 pixels
Display aspect ratio                     : 16:9
Frame rate mode                          : Constant
Frame rate                               : 23.976 fps
Standard                                 : NTSC
Color space                              : YUV
Chroma subsampling                       : 4:2:0
Bit depth                                : 8 bits
Scan type                                : Progressive
Bits/(Pixel*Frame)                       : 0.121
Stream size                              : 272 MiB (97%)
Language                                 : English
Encoded date                             : UTC 1904-01-01 00:00:00
Tagged date                              : UTC 1904-01-01 00:00:00
Color range                              : Limited
Color primaries                          : BT.709
Transfer characteristics                 : BT.709
Matrix coefficients                      : BT.709
Audio
ID                                       : 2
Format                                   : AAC
Format/Info                              : Advanced Audio Codec
Format profile                           : LC
Codec ID                                 : 40
Duration                                 : 6mn 18s
Bit rate mode                            : Variable
Bit rate                                 : 157 Kbps
Maximum bit rate                         : 257 Kbps
Channel(s)                               : 2 channels
Channel positions                        : Front: L R
Sampling rate                            : 48.0 KHz
Compression mode                         : Lossy
Stream size                              : 7.10 MiB (3%)
Language                                 : English
Encoded date                             : UTC 1904-01-01 00:00:00
Tagged date                              : UTC 1904-01-01 00:00:00


Related Torrents
Torrent Name   AGE FILES SIZE

 Date: 03/25/17 12:35   in : XXX 

10 sec 1 1.5 GB

 Date: 03/25/17 12:32   in : XXX 

2 min 1 699.2 MB

 Date: 03/25/17 12:28   in : XXX 

6 min 1

 Date: 03/25/17 12:28   in : XXX 

6 min 1 1.9 GB

 Date: 03/25/17 12:27   in : XXX 

7 min 1 1.3 GB

 Date: 03/25/17 12:22   in : XXX 

12 min 1 851 MB

 Date: 03/25/17 12:21   in : XXX 

14 min 7 456.1 MB

 Date: 03/25/17 12:21   in : XXX 

14 min 1 634.7 MB

 Date: 03/25/17 12:19   in : XXX 

15 min 2 1.5 GB

 Date: 03/25/17 12:18   in : XXX 

16 min 1 2.3 GB

 Date: 03/25/17 12:17   in : XXX 

17 min 1

 Date: 03/25/17 12:14   in : XXX 

20 min 5 1.3 GB