Direct Download ThaiGirlsWild.14.09.10.Febe.XXX.1080p.MP4.OHRLY torrent

download torrent
Size: 447.3 MB
Downloaded: 79
Hits: 263


Video
ID                                       : 1
Format                                   : AVC
Format/Info                              : Advanced Video Codec
Format profile                           : [email protected]
Format settings, CABAC                   : No
Format settings, ReFrames                : 3 frames
Codec ID                                 : avc1
Codec ID/Info                            : Advanced Video Coding
Duration                                 : 11mn 52s
Bit rate                                 : 5 000 Kbps
Width                                    : 1 920 pixels
Height                                   : 1 080 pixels
Display aspect ratio                     : 16:9
Frame rate mode                          : Constant
Frame rate                               : 30.000 fps
Color space                              : YUV
Chroma subsampling                       : 4:2:0
Bit depth                                : 8 bits
Scan type                                : Progressive
Bits/(Pixel*Frame)                       : 0.080
Stream size                              : 419 MiB (94%)
Writing library                          : x264 core 142
Encoding settings                        : cabac=0 / ref=3 / deblock=1:0:0 / analyse=0x1:0x111 / me=hex / subme=7 / psy=1 / psy_rd=1.00:0.00 / mixed_ref=1 / me_range=16 / chroma_me=1 / trellis=1 / 8x8dct=0 / cqm=0 / deadzone=21,11 / fast_pskip=1 / chroma_qp_offset=-2 / threads=12 / lookahead_threads=2 / sliced_threads=0 / nr=0 / decimate=1 / interlaced=0 / bluray_compat=0 / constrained_intra=0 / bframes=0 / weightp=0 / keyint=250 / keyint_min=25 / scenecut=40 / intra_refresh=0 / rc_lookahead=40 / rc=abr / mbtree=1 / bitrate=5000 / ratetol=1.0 / qcomp=0.60 / qpmin=0 / qpmax=69 / qpstep=4 / ip_ratio=1.40 / aq=1:1.00
Audio
ID                                       : 2
Format                                   : AAC
Format/Info                              : Advanced Audio Codec
Format profile                           : LC
Codec ID                                 : 40
Duration                                 : 11mn 52s
Duration_LastFrame                       : 15ms
Bit rate mode                            : Variable
Bit rate                                 : 316 Kbps
Maximum bit rate                         : 320 Kbps
Channel(s)                               : 2 channels
Channel positions                        : Front: L R
Sampling rate                            : 44.1 KHz
Compression mode                         : Lossy
Stream size                              : 26.9 MiB (6%)


NEW adulttorrent.org - Exclusive video only

Related Torrents
Torrent Name   AGE FILES SIZE

 Date: 06/01/18 00:15   in : XXX 

500 days 1

 Date: 06/01/18 00:12   in : XXX 

500 days 1

 Date: 06/01/18 00:09   in : XXX 

500 days 1

 Date: 06/01/18 00:07   in : XXX 

500 days 1

 Date: 06/01/18 00:04   in : XXX 

500 days 1

 Date: 06/01/18 00:03   in : XXX 

500 days 1

 Date: 06/01/18 00:02   in : XXX 

500 days 1

 Date: 06/01/18 00:02   in : XXX 

500 days 1

 Date: 05/31/18 23:59   in : XXX 

500 days 1

 Date: 05/31/18 23:51   in : XXX 

500 days 1

 Date: 05/31/18 23:51   in : XXX 

500 days 1

 Date: 05/31/18 23:50   in : XXX 

500 days 1