Direct Download FirstClassPOV.15.11.17.Cherie.Deville.And.Jessica.Jaymes.XXX.1080p.MP4-KTR torrent

download torrent
Size: 851.1 MB
Downloaded: 157
Hits: 344

FirstClassPOV.15.11.17.Cherie.Deville.And.Jessica.Jaymes.XXX.
1080p.MP4-KTR
Genre.......: Adult
Files.......: 18
Video.......: MP4
Date........: 2015-11-17
URL.........: http://www.firstclasspov.com/

Video
ID                                       : 1
Format                                   : AVC
Format/Info                              : Advanced Video Codec
Format profile                           : [email protected]
Format settings, CABAC                   : No
Format settings, ReFrames                : 3 frames
Codec ID                                 : avc1
Codec ID/Info                            : Advanced Video Coding
Duration                                 : 14mn 45s
Bit rate                                 : 8 000 Kbps
Width                                    : 1 920 pixels
Height                                   : 1 080 pixels
Display aspect ratio                     : 16:9
Frame rate mode                          : Constant
Frame rate                               : 30.000 fps
Color space                              : YUV
Chroma subsampling                       : 4:2:0
Bit depth                                : 8 bits
Scan type                                : Progressive
Bits/(Pixel*Frame)                       : 0.129
Stream size                              : 837 MiB (98%)
Writing library                          : x264 core 146 r109 121396c
Encoding settings                        : cabac=0 / ref=3 / deblock=1:0:0 / analyse=0x3:0x113 / me=hex / subme=7 / psy=1 / psy_rd=1.00:0.00 / mixed_ref=1 / me_range=16 / chroma_me=1 / trellis=1 / 8x8dct=1 / cqm=0 / deadzone=21,11 / fast_pskip=1 / chroma_qp_offset=-2 / threads=12 / lookahead_threads=2 / sliced_threads=0 / nr=0 / decimate=1 / interlaced=0 / bluray_compat=0 / constrained_intra=0 / bframes=0 / weightp=2 / keyint=250 / keyint_min=25 / scenecut=40 / intra_refresh=0 / rc_lookahead=40 / rc=abr / mbtree=1 / bitrate=8000 / ratetol=1.0 / qcomp=0.60 / qpmin=0 / qpmax=69 / qpstep=4 / ip_ratio=1.40 / aq=1:1.00
Encoded date                             : UTC 1904-01-01 00:00:00
Tagged date                              : UTC 1904-01-01 00:00:00
Audio
ID                                       : 2
Format                                   : AAC
Format/Info                              : Advanced Audio Codec
Format profile                           : LC
Codec ID                                 : 40
Duration                                 : 14mn 45s
Duration_LastFrame                       : 22ms
Bit rate mode                            : Constant
Bit rate                                 : 129 Kbps
Channel(s)                               : 2 channels
Channel positions                        : Front: L R
Sampling rate                            : 44.1 KHz
Compression mode                         : Lossy
Stream size                              : 13.6 MiB (2%)
Language                                 : English
Encoded date                             : UTC 1904-01-01 00:00:00
Tagged date                              : UTC 1904-01-01 00:00:00

NEW adulttorrent.org - Exclusive video only

Related Torrents
Torrent Name   AGE FILES SIZE

 Date: 10/20/19 21:10   in : Anal 

369 days 1 255.5 MB

 Date: 10/20/19 20:13   in : Anal 

369 days 1 306.8 MB

 Date: 10/20/19 19:50   in : Anal 

369 days 1 328.9 MB

 Date: 10/20/19 19:36   in : Anal 

369 days 1 344.6 MB

 Date: 10/20/19 18:51   in : Anal 

369 days 1 425 MB

 Date: 10/20/19 17:42   in : Anal 

369 days 1 337.9 MB

 Date: 10/20/19 17:21   in : Anal 

370 days 1 285.6 MB

 Date: 10/20/19 17:11   in : Anal 

370 days 1 396.5 MB

 Date: 10/20/19 16:45   in : Anal 

370 days 1 437.4 MB

 Date: 10/20/19 16:39   in : Anal 

370 days 1 311.3 MB

 Date: 10/20/19 16:26   in : Anal 

370 days 1 261 MB

 Date: 10/20/19 16:20   in : Anal 

370 days 1 442 MB


Copyright © OnceSearch.com 2015-2019. OnceSearch.com provides only meta files (small .torrent files) on its web site, and hosts no actual file for download!!!