Direct Download TeenSexMania - Riley - Punishment from his girlfriend mp4 torrent

download torrent
Size: 209.3 MB
Downloaded: 116
Hits: 125

Sweet girl is about to punish her man for not being loyal. The guy gets thrown on to the bed and our beauty jumps on his face, making him suck on that juicy pussy nicely before having it penetrated. No better way to make your lover regret his actions but to have the very last sex, and make it unforgettable.

Format                                   : MPEG-4
Format profile                           : Base Media
Codec ID                                 : isom
File size                                : 209 MiB
Duration                                 : 17mn 3s
Overall bit rate mode                    : Variable
Overall bit rate                         : 1 715 Kbps
Writing application                      : Lavf52.37.0
Video
ID                                       : 1
Format                                   : AVC
Format/Info                              : Advanced Video Codec
Format profile                           : [email protected]
Format settings, CABAC                   : Yes
Format settings, ReFrames                : 3 frames
Codec ID                                 : avc1
Codec ID/Info                            : Advanced Video Coding
Duration                                 : 17mn 3s
Bit rate                                 : 1 600 Kbps
Width                                    : 720 pixels
Height                                   : 406 pixels
Display aspect ratio                     : 16:9
Frame rate mode                          : Constant
Frame rate                               : 25.000 fps
Color space                              : YUV
Chroma subsampling                       : 4:2:0
Bit depth                                : 8 bits
Scan type                                : Progressive
Bits/(Pixel*Frame)                       : 0.219
Stream size                              : 194 MiB (93%)
Writing library                          : x264 core 1191.0
Encoding settings                        : cabac=1 / ref=3 / deblock=1:0:0 / analyse=0x3:0x113 / me=hex / subme=7 / psy=1 / psy_rd=1.00:0.00 / mixed_ref=1 / me_range=16 / chroma_me=1 / trellis=1 / 8x8dct=1 / cqm=0 / deadzone=21,11 / fast_pskip=1 / chroma_qp_offset=-2 / threads=36 / sliced_threads=0 / nr=0 / decimate=1 / interlaced=0 / bluray_compat=0 / constrained_intra=0 / bframes=0 / weightp=2 / keyint=100 / keyint_min=10 / scenecut=40 / intra_refresh=0 / rc_lookahead=40 / rc=abr / mbtree=1 / bitrate=1600 / ratetol=1.0 / qcomp=0.60 / qpmin=0 / qpmax=69 / qpstep=4 / ip_ratio=1.40 / aq=1:1.00
Audio
ID                                       : 2
Format                                   : AAC
Format/Info                              : Advanced Audio Codec
Format profile                           : LC
Codec ID                                 : 40
Duration                                 : 17mn 3s
Bit rate mode                            : Variable
Bit rate                                 : 117 Kbps
Channel(s)                               : 2 channels
Channel positions                        : Front: L R
Sampling rate                            : 44.1 KHz
Compression mode                         : Lossy
Stream size                              : 14.3 MiB (7%)


NEW adulttorrent.org - Exclusive video only

Related Torrents
Torrent Name   AGE FILES SIZE

 Date: 06/01/18 00:15   in : XXX 

532 days 1

 Date: 06/01/18 00:12   in : XXX 

532 days 1

 Date: 06/01/18 00:09   in : XXX 

532 days 1

 Date: 06/01/18 00:07   in : XXX 

532 days 1

 Date: 06/01/18 00:04   in : XXX 

532 days 1

 Date: 06/01/18 00:03   in : XXX 

532 days 1

 Date: 06/01/18 00:02   in : XXX 

532 days 1

 Date: 06/01/18 00:02   in : XXX 

532 days 1

 Date: 05/31/18 23:59   in : XXX 

532 days 1

 Date: 05/31/18 23:51   in : XXX 

532 days 1

 Date: 05/31/18 23:51   in : XXX 

532 days 1

 Date: 05/31/18 23:50   in : XXX 

532 days 1