NEW BEST ADULT Torrent..Tsss....only for you!

Direct Download MyFriendsHotGirl.Kymberlee.Anne.mp4 torrent

download torrent
Size: 189 MB
Downloaded: 25
Hits: 74


Video
ID                                       : 1
Format                                   : AVC
Format/Info                              : Advanced Video Codec
Format profile                           : [email protected]
Format settings, CABAC                   : Yes
Format settings, ReFrames                : 4 frames
Codec ID                                 : avc1
Codec ID/Info                            : Advanced Video Coding
Duration                                 : 26mn 49s
Bit rate                                 : 900 Kbps
Width                                    : 640 pixels
Height                                   : 360 pixels
Display aspect ratio                     : 16:9
Frame rate mode                          : Constant
Frame rate                               : 24.000 fps
Color space                              : YUV
Chroma subsampling                       : 4:2:0
Bit depth                                : 8 bits
Scan type                                : Progressive
Bits/(Pixel*Frame)                       : 0.163
Stream size                              : 173 MiB (92%)
Writing library                          : x264 core 136
Encoding settings                        : cabac=1 / ref=4 / deblock=1:0:0 / analyse=0x1:0x111 / me=hex / subme=6 / psy=1 / psy_rd=1.00:0.00 / mixed_ref=1 / me_range=16 / chroma_me=1 / trellis=1 / 8x8dct=0 / cqm=0 / deadzone=21,11 / fast_pskip=1 / chroma_qp_offset=-2 / threads=48 / lookahead_threads=2 / sliced_threads=0 / nr=0 / decimate=1 / interlaced=0 / bluray_compat=0 / constrained_intra=0 / bframes=3 / b_pyramid=0 / b_adapt=1 / b_bias=0 / direct=1 / weightb=1 / open_gop=0 / weightp=2 / keyint=150 / keyint_min=25 / scenecut=40 / intra_refresh=0 / rc_lookahead=40 / rc=2pass / mbtree=1 / bitrate=900 / ratetol=1.0 / qcomp=0.50 / qpmin=8 / qpmax=51 / qpstep=4 / cplxblur=20.0 / qblur=0.5 / ip_ratio=1.41 / aq=1:1.00
Language                                 : English
Audio
ID                                       : 2
Format                                   : AAC
Format/Info                              : Advanced Audio Codec
Format profile                           : LC
Codec ID                                 : 40
Duration                                 : 26mn 49s
Duration_LastFrame                       : -17ms
Bit rate mode                            : Variable
Bit rate                                 : 77.7 Kbps
Maximum bit rate                         : 96.0 Kbps
Channel(s)                               : 2 channels
Channel positions                        : Front: L R
Sampling rate                            : 44.1 KHz
Compression mode                         : Lossy
Delay relative to video                  : -1ms
Stream size                              : 14.9 MiB (8%)
Language                                 : English

NEW adulttorrent.org - Exclusive video only

Related Torrents
Torrent Name   AGE FILES SIZE

 Date: 02/17/19 04:32   in : Hardcore 

21 hours 1 495.2 MB

 Date: 02/16/19 21:03   in : Hardcore 

1 day 3 988.6 MB

 Date: 02/16/19 20:56   in : Hardcore 

1 day 14 168.2 MB

 Date: 02/16/19 20:51   in : Hardcore 

1 day 1 221 MB

 Date: 02/16/19 20:45   in : Hardcore 

1 day 1 839.1 MB

 Date: 02/16/19 20:40   in : Hardcore 

1 day 1 5.5 GB

 Date: 02/16/19 20:32   in : Hardcore 

1 day 1 311.2 MB

 Date: 02/16/19 20:26   in : Hardcore 

1 day 1 610.9 MB

 Date: 02/16/19 20:13   in : Hardcore 

1 day 1 269.4 MB

 Date: 02/16/19 20:09   in : Hardcore 

1 day 1 931.1 MB

 Date: 02/16/19 20:01   in : Hardcore 

1 day 1 310.1 MB

 Date: 02/16/19 19:55   in : Hardcore 

1 day 1 182.8 MB