Direct Download TabooByPrimal.Jade.Jantzen.Jades.Brother.Takes.Every.Hole.mp4 torrent

download torrent
Size: 969.7 MB
Downloaded: 65
Hits: 1704


Video
ID                                       : 1
Format                                   : MPEG-4 Visual
Format profile                           : [email protected]
Format settings, BVOP                    : No
Format settings, QPel                    : No
Format settings, GMC                     : No warppoints
Format settings, Matrix                  : Default (H.263)
Codec ID                                 : 20
Duration                                 : 51mn 2s
Bit rate                                 : 2 501 Kbps
Width                                    : 960 pixels
Height                                   : 540 pixels
Display aspect ratio                     : 16:9
Frame rate mode                          : Variable
Frame rate                               : 29.970 fps
Minimum frame rate                       : 15.000 fps
Maximum frame rate                       : 30.000 fps
Color space                              : YUV
Chroma subsampling                       : 4:2:0
Bit depth                                : 8 bits
Scan type                                : Progressive
Compression mode                         : Lossy
Bits/(Pixel*Frame)                       : 0.161
Stream size                              : 913 MiB (94%)
Writing library                          : Lavc52.66.0
Audio
ID                                       : 2
Format                                   : AAC
Format/Info                              : Advanced Audio Codec
Format profile                           : LC
Codec ID                                 : 40
Duration                                 : 51mn 1s
Bit rate mode                            : Variable
Bit rate                                 : 150 Kbps
Channel(s)                               : 2 channels
Channel positions                        : Front: L R
Sampling rate                            : 44.1 KHz
Compression mode                         : Lossy
Stream size                              : 54.9 MiB (6%)


Related Torrents
Torrent Name   AGE FILES SIZE

 Date: 06/01/18 00:15   in : XXX 

81 days 1

 Date: 06/01/18 00:12   in : XXX 

81 days 1

 Date: 06/01/18 00:09   in : XXX 

81 days 1

 Date: 06/01/18 00:07   in : XXX 

81 days 1

 Date: 06/01/18 00:04   in : XXX 

81 days 1

 Date: 06/01/18 00:03   in : XXX 

81 days 1

 Date: 06/01/18 00:02   in : XXX 

81 days 1

 Date: 06/01/18 00:02   in : XXX 

81 days 1

 Date: 05/31/18 23:59   in : XXX 

81 days 1

 Date: 05/31/18 23:51   in : XXX 

81 days 1

 Date: 05/31/18 23:51   in : XXX 

81 days 1

 Date: 05/31/18 23:50   in : XXX 

81 days 1