Direct Download SwallowSalon.Megan.Sage.mp4 torrent

download torrent
Size: 182.2 MB
Downloaded: 145
Hits: 185


Video
ID                                       : 1
Format                                   : AVC
Format/Info                              : Advanced Video Codec
Format profile                           : [email protected]
Format settings, CABAC                   : No
Format settings, ReFrames                : 1 frame
Codec ID                                 : avc1
Codec ID/Info                            : Advanced Video Coding
Duration                                 : 16mn 45s
Bit rate                                 : 1 400 Kbps
Maximum bit rate                         : 2 493 Kbps
Width                                    : 640 pixels
Height                                   : 360 pixels
Display aspect ratio                     : 16:9
Frame rate mode                          : Constant
Frame rate                               : 29.970 fps
Color space                              : YUV
Chroma subsampling                       : 4:2:0
Bit depth                                : 8 bits
Scan type                                : Progressive
Bits/(Pixel*Frame)                       : 0.203
Stream size                              : 167 MiB (92%)
Writing library                          : x264 core 116 r2019 9cc407d
Encoding settings                        : cabac=0 / ref=1 / deblock=1:0:0 / analyse=0x3:0x113 / me=hex / subme=7 / psy=1 / psy_rd=1.00:0.00 / mixed_ref=0 / me_range=16 / chroma_me=1 / trellis=1 / 8x8dct=1 / cqm=0 / deadzone=21,11 / fast_pskip=1 / chroma_qp_offset=-2 / threads=6 / sliced_threads=0 / nr=0 / decimate=1 / interlaced=0 / bluray_compat=0 / constrained_intra=0 / bframes=0 / weightp=2 / keyint=250 / keyint_min=25 / scenecut=40 / intra_refresh=0 / rc_lookahead=40 / rc=abr / mbtree=1 / bitrate=1400 / ratetol=1.0 / qcomp=0.60 / qpmin=0 / qpmax=69 / qpstep=4 / ip_ratio=1.40 / aq=1:1.00
Encoded date                             : UTC 2016-04-15 16:05:32
Tagged date                              : UTC 2016-04-15 16:05:35
Audio
ID                                       : 2
Format                                   : AAC
Format/Info                              : Advanced Audio Codec
Format profile                           : LC
Codec ID                                 : 40
Duration                                 : 16mn 46s
Bit rate mode                            : Variable
Bit rate                                 : 126 Kbps
Maximum bit rate                         : 150 Kbps
Channel(s)                               : 2 channels
Channel positions                        : Front: L R
Sampling rate                            : 44.1 KHz
Compression mode                         : Lossy
Stream size                              : 15.1 MiB (8%)
Encoded date                             : UTC 2016-04-15 16:05:34
Tagged date                              : UTC 2016-04-15 16:05:35


NEW adulttorrent.org - Exclusive video only

Related Torrents
Torrent Name   AGE FILES SIZE

 Date: 06/01/18 00:15   in : XXX 

507 days 1

 Date: 06/01/18 00:12   in : XXX 

507 days 1

 Date: 06/01/18 00:09   in : XXX 

507 days 1

 Date: 06/01/18 00:07   in : XXX 

507 days 1

 Date: 06/01/18 00:04   in : XXX 

507 days 1

 Date: 06/01/18 00:03   in : XXX 

507 days 1

 Date: 06/01/18 00:02   in : XXX 

507 days 1

 Date: 06/01/18 00:02   in : XXX 

507 days 1

 Date: 05/31/18 23:59   in : XXX 

507 days 1

 Date: 05/31/18 23:51   in : XXX 

507 days 1

 Date: 05/31/18 23:51   in : XXX 

507 days 1

 Date: 05/31/18 23:50   in : XXX 

507 days 1