Direct Download SwallowSalon.16.06.17.Nicole.Clitman.XXX.1080p.MP4.KTR torrent

download torrent
Size: 722.1 MB
Downloaded: 102
Hits: 235


Video
ID                                       : 1
Format                                   : AVC
Format/Info                              : Advanced Video Codec
Format profile                           : [email protected]
Format settings, CABAC                   : Yes
Format settings, ReFrames                : 2 frames
Codec ID                                 : avc1
Codec ID/Info                            : Advanced Video Coding
Duration                                 : 14mn 9s
Bit rate mode                            : Variable
Bit rate                                 : 6 990 Kbps
Maximum bit rate                         : 768 Kbps
Width                                    : 1 920 pixels
Height                                   : 1 080 pixels
Display aspect ratio                     : 16:9
Frame rate mode                          : Constant
Frame rate                               : 29.970 fps
Original frame rate                      : 25.000 fps
Color space                              : YUV
Chroma subsampling                       : 4:2:0
Bit depth                                : 8 bits
Scan type                                : Progressive
Bits/(Pixel*Frame)                       : 0.112
Stream size                              : 708 MiB (98%)
Color primaries                          : BT.709-5, BT.1361, IEC 61966-2-4, SMPTE RP177
Transfer characteristics                 : BT.709-5, BT.1361
Matrix coefficients                      : BT.709-5, BT.1361, IEC 61966-2-4 709, SMPTE RP177
Audio
ID                                       : 2
Format                                   : AAC
Format/Info                              : Advanced Audio Codec
Format profile                           : LC
Codec ID                                 : 40
Duration                                 : 14mn 9s
Bit rate mode                            : Constant
Bit rate                                 : 128 Kbps
Channel(s)                               : 2 channels
Channel positions                        : Front: L R
Sampling rate                            : 44.1 KHz
Compression mode                         : Lossy
Delay relative to video                  : -1s 1ms
Stream size                              : 13.0 MiB (2%)
Language                                 : English


NEW adulttorrent.org - Exclusive video only

Related Torrents
Torrent Name   AGE FILES SIZE

 Date: 06/01/18 00:15   in : XXX 

500 days 1

 Date: 06/01/18 00:12   in : XXX 

500 days 1

 Date: 06/01/18 00:09   in : XXX 

500 days 1

 Date: 06/01/18 00:07   in : XXX 

500 days 1

 Date: 06/01/18 00:04   in : XXX 

500 days 1

 Date: 06/01/18 00:03   in : XXX 

500 days 1

 Date: 06/01/18 00:02   in : XXX 

500 days 1

 Date: 06/01/18 00:02   in : XXX 

500 days 1

 Date: 05/31/18 23:59   in : XXX 

500 days 1

 Date: 05/31/18 23:51   in : XXX 

500 days 1

 Date: 05/31/18 23:51   in : XXX 

500 days 1

 Date: 05/31/18 23:50   in : XXX 

500 days 1