Direct Download Mackenzie Moss, Nikki Peach (Cheer Tryouts) NEW 06 August 2019 torrent

download torrent
Size: 1 GB
Downloaded: 149
Hits: 745

JoshStoneXXX.15.06.15.Big.Booty.Latina.Monique.Carvalho.XXX.
720p.FLV-KTR
Genre.......: Adult
Files.......: 22
Video.......: FLV
Date........: 2015-06-15
URL.........: http://joshstonexxx.com/

General
Complete name                            : /home/tup/downloads/JoshStoneXXX.15.06.15.Big.Booty.Latina.Monique.Carvalho.XXX.720p.FLV-KTR[rarbg]/jsxxx.15.06.15.big.booty.latina.monique.carvalho.flv
Format                                   : Flash Video
File size                                : 1.00 GiB
Duration                                 : 34mn 36s
Overall bit rate                         : 4 136 Kbps
liveXML                                  :
Video
Format                                   : VP6
Codec ID                                 : 4
Duration                                 : 34mn 36s
Bit rate                                 : 3 840 Kbps
Width                                    : 1 280 pixels
Height                                   : 720 pixels
Display aspect ratio                     : 16:9
Frame rate mode                          : Constant
Frame rate                               : 29.970 fps
Bit depth                                : 8 bits
Bits/(Pixel*Frame)                       : 0.139
Stream size                              : 951 MiB (93%)
Audio
Format                                   : MPEG Audio
Format version                           : Version 2
Format profile                           : Layer 3
Mode                                     : Joint stereo
Mode extension                           : Intensity Stereo + MS Stereo
Codec ID                                 : 2
Codec ID/Hint                            : MP3
Duration                                 : 34mn 36s
Bit rate mode                            : Constant
Bit rate                                 : 64.0 Kbps
Channel(s)                               : 2 channels
Sampling rate                            : 22.05 KHz
Compression mode                         : Lossy
Stream size                              : 15.8 MiB (2%)

NEW adulttorrent.org - Exclusive video only

Related Torrents
Torrent Name   AGE FILES SIZE

 Date: 10/18/19 12:41   in : Teen 

28 days 3 3.5 GB

 Date: 10/17/19 08:43   in : Teen 

29 days 1 6.3 GB

 Date: 10/16/19 16:40   in : Teen 

30 days 3 3.5 GB

 Date: 10/16/19 10:42   in : Teen 

30 days 1 450.5 MB

 Date: 10/16/19 08:51   in : Teen 

30 days 2 613.4 MB

 Date: 10/16/19 08:40   in : Teen 

30 days 1 188.5 MB

 Date: 10/15/19 15:38   in : Teen 

31 days 3 3.5 GB

 Date: 10/15/19 15:20   in : Teen 

31 days 2 323.6 MB

 Date: 10/15/19 09:35   in : Teen 

31 days 2 1.1 GB

 Date: 10/14/19 17:28   in : Teen 

32 days 3 577.5 MB

 Date: 10/05/19 16:09   in : Teen 

41 days 2 922.9 MB

 Date: 10/05/19 14:53   in : Teen 

41 days 2 397 MB