Direct Download SpyTug.16.03.25.Girl.44.XXX.1080p.MP4-KTR torrent

download torrent
Size: 264 MB
Downloaded: 148
Hits: 197

SpyTug.16.03.25.Girl.44.XXX.1080p.MP4-KTR
Genre.......: Adult
Files.......: 19
Video.......: MP4
Date........: 2016-04-13
URL.........: http://www.spytug.com/

Video
ID                                       : 1
Format                                   : AVC
Format/Info                              : Advanced Video Codec
Format profile                           : [email protected]
Format settings, CABAC                   : No
Format settings, ReFrames                : 2 frames
Codec ID                                 : avc1
Codec ID/Info                            : Advanced Video Coding
Duration                                 : 4mn 25s
Bit rate mode                            : Variable
Bit rate                                 : 8 064 Kbps
Maximum bit rate                         : 768 Kbps
Width                                    : 1 920 pixels
Height                                   : 1 080 pixels
Display aspect ratio                     : 16:9
Frame rate mode                          : Constant
Frame rate                               : 29.970 (30000/1001) fps
Original frame rate                      : 25.000 fps
Color space                              : YUV
Chroma subsampling                       : 4:2:0
Bit depth                                : 8 bits
Scan type                                : Progressive
Bits/(Pixel*Frame)                       : 0.130
Stream size                              : 256 MiB (97%)
Encoded date                             : UTC 1904-01-01 00:00:00
Tagged date                              : UTC 1904-01-01 00:00:00
Color range                              : Limited
Color primaries                          : BT.709
Transfer characteristics                 : BT.709
Matrix coefficients                      : BT.709
Audio
ID                                       : 2
Format                                   : AAC
Format/Info                              : Advanced Audio Codec
Format profile                           : LC
Codec ID                                 : 40
Duration                                 : 4mn 26s
Bit rate mode                            : Variable
Bit rate                                 : 253 Kbps
Maximum bit rate                         : 256 Kbps
Channel(s)                               : 2 channels
Channel positions                        : Front: L R
Sampling rate                            : 44.1 KHz
Frame rate                               : 43.066 fps (1024 spf)
Compression mode                         : Lossy
Stream size                              : 8.01 MiB (3%)
Language                                 : English
Default                                  : Yes
Alternate group                          : 1
Encoded date                             : UTC 1904-01-01 00:00:00
Tagged date                              : UTC 1904-01-01 00:00:00


NEW adulttorrent.org - Exclusive video only

Related Torrents
Torrent Name   AGE FILES SIZE

 Date: 06/01/18 00:15   in : XXX 

538 days 1

 Date: 06/01/18 00:12   in : XXX 

538 days 1

 Date: 06/01/18 00:09   in : XXX 

538 days 1

 Date: 06/01/18 00:07   in : XXX 

538 days 1

 Date: 06/01/18 00:04   in : XXX 

538 days 1

 Date: 06/01/18 00:03   in : XXX 

538 days 1

 Date: 06/01/18 00:02   in : XXX 

538 days 1

 Date: 06/01/18 00:02   in : XXX 

538 days 1

 Date: 05/31/18 23:59   in : XXX 

538 days 1

 Date: 05/31/18 23:51   in : XXX 

538 days 1

 Date: 05/31/18 23:51   in : XXX 

538 days 1

 Date: 05/31/18 23:50   in : XXX 

538 days 1