Direct Download SexAsian18.15.10.28.Mega.Busty.Woman.Big.Breasts.Slapping.XXX.H264.oRo.avi torrent

download torrent
Size: 1,023.8 MB
Downloaded: 150
Hits: 157


Video
ID                                       : 0
Format                                   : MPEG-4 Visual
Format profile                           : [email protected]
Format settings, BVOP                    : No
Format settings, QPel                    : No
Format settings, GMC                     : No warppoints
Format settings, Matrix                  : Default (H.263)
Codec ID                                 : XVID
Codec ID/Hint                            : XviD
Duration                                 : 1h 46mn
Bit rate                                 : 1 201 Kbps
Width                                    : 720 pixels
Height                                   : 480 pixels
Display aspect ratio                     : 3:2
Frame rate                               : 29.970 fps
Standard                                 : NTSC
Color space                              : YUV
Chroma subsampling                       : 4:2:0
Bit depth                                : 8 bits
Scan type                                : Progressive
Compression mode                         : Lossy
Bits/(Pixel*Frame)                       : 0.116
Stream size                              : 917 MiB (90%)
Writing library                          : XviD 1.1.0 Beta2 (UTC 2005-04-04)
Audio
ID                                       : 1
Format                                   : MPEG Audio
Format version                           : Version 1
Format profile                           : Layer 3
Mode                                     : Joint stereo
Mode extension                           : MS Stereo
Codec ID                                 : 55
Codec ID/Hint                            : MP3
Duration                                 : 1h 46mn
Bit rate mode                            : Constant
Bit rate                                 : 128 Kbps
Channel(s)                               : 2 channels
Sampling rate                            : 48.0 KHz
Compression mode                         : Lossy
Delay relative to video                  : 16ms
Stream size                              : 97.7 MiB (10%)
Alignment                                : Split accross interleaves
Interleave, duration                     : 33 ms (1.00 video frame)
Interleave, preload duration             : 500 ms


NEW adulttorrent.org - Exclusive video only

Related Torrents
Torrent Name   AGE FILES SIZE

 Date: 06/01/18 00:15   in : XXX 

538 days 1

 Date: 06/01/18 00:12   in : XXX 

538 days 1

 Date: 06/01/18 00:09   in : XXX 

538 days 1

 Date: 06/01/18 00:07   in : XXX 

538 days 1

 Date: 06/01/18 00:04   in : XXX 

538 days 1

 Date: 06/01/18 00:03   in : XXX 

538 days 1

 Date: 06/01/18 00:02   in : XXX 

538 days 1

 Date: 06/01/18 00:02   in : XXX 

538 days 1

 Date: 05/31/18 23:59   in : XXX 

538 days 1

 Date: 05/31/18 23:51   in : XXX 

538 days 1

 Date: 05/31/18 23:51   in : XXX 

538 days 1

 Date: 05/31/18 23:50   in : XXX 

538 days 1