Direct Download AllOver30.15.12.29.Zaira.Connor.XXX.720p.WMV.YAPG torrent

download torrent
Size: 378 MB
Downloaded: 25
Hits: 147


Video
ID                                       : 2
Format                                   : VC-1
Format profile                           : [email protected]
Codec ID                                 : WMV3
Codec ID/Info                            : Windows Media Video 9
Codec ID/Hint                            : WMV3
Description of the codec                 : Windows Media Video 9 - Professional
Duration                                 : 14mn 26s
Bit rate mode                            : Constant
Bit rate                                 : 3 688 Kbps
Width                                    : 1 280 pixels
Height                                   : 720 pixels
Display aspect ratio                     : 16:9
Frame rate                               : 50.000 fps
Bit depth                                : 8 bits
Compression mode                         : Lossy
Bits/(Pixel*Frame)                       : 0.080
Stream size                              : 381 MiB
Language                                 : English (US)
Audio
ID                                       : 1
Format                                   : WMA
Format version                           : Version 2
Codec ID                                 : 161
Codec ID/Info                            : Windows Media Audio
Description of the codec                 : Windows Media Audio 9.2 - 192 kbps, 48 kHz, stereo (A/V) 1-pass CBR
Duration                                 : 14mn 26s
Bit rate mode                            : Constant
Bit rate                                 : 192 Kbps
Channel(s)                               : 2 channels
Sampling rate                            : 48.0 KHz
Bit depth                                : 16 bits
Stream size                              : 19.8 MiB (5%)
Language                                 : English (US)

Related Torrents
Torrent Name   AGE FILES SIZE

 Date: 06/19/18 08:36   in : Fisting 

4 days 1 2.9 GB

 Date: 06/08/18 19:30   in : Fisting 

14 days 2 778.5 MB

 Date: 03/13/18 08:29   in : Fisting 

102 days 1 901.9 MB

 Date: 03/03/18 01:20   in : Fisting 

112 days 2 496.9 MB

 Date: 02/20/18 21:24   in : Fisting 

122 days 2 910.2 MB

 Date: 02/19/18 17:01   in : Fisting 

123 days 1 910.2 MB

 Date: 02/10/18 00:45   in : Fisting 

133 days 1 1.7 GB

 Date: 02/08/18 23:42   in : Fisting 

134 days 4 2.7 GB

 Date: 01/28/18 11:57   in : Fisting 

146 days 1 412.9 MB

 Date: 11/27/17 02:12   in : Fisting 

208 days 1 2 GB

 Date: 11/19/17 04:13   in : Fisting 

216 days 1 4.8 GB

 Date: 11/10/17 23:15   in : Fisting 

224 days 1 345.5 MB