Direct Download AssParade.Rebeca.Linares.Gracie.Glam.Super.Asses.with.Rebeca.Linares.and.Gracie.Glam.mp4 torrent

download torrent
Size: 295 MB
Downloaded: 33
Hits: 155


Video
ID                                       : 1
Format                                   : AVC
Format/Info                              : Advanced Video Codec
Format profile                           : [email protected]
Format settings, CABAC                   : Yes
Format settings, ReFrames                : 6 frames
Codec ID                                 : avc1
Codec ID/Info                            : Advanced Video Coding
Duration                                 : 37mn 28s
Bit rate                                 : 1 000 Kbps
Width                                    : 852 pixels
Height                                   : 480 pixels
Display aspect ratio                     : 16:9
Original display aspect ratio            : 16:9
Frame rate mode                          : Constant
Frame rate                               : 30.000 fps
Color space                              : YUV
Chroma subsampling                       : 4:2:0
Bit depth                                : 8 bits
Scan type                                : Progressive
Bits/(Pixel*Frame)                       : 0.082
Stream size                              : 267 MiB (90%)
Writing library                          : x264 core 124 r2019+178 69a0443
Encoding settings                        : cabac=1 / ref=6 / deblock=1:0:0 / analyse=0x1:0x111 / me=hex / subme=6 / psy=1 / psy_rd=1.00:0.00 / mixed_ref=1 / me_range=16 / chroma_me=1 / trellis=1 / 8x8dct=0 / cqm=0 / deadzone=21,11 / fast_pskip=1 / chroma_qp_offset=-2 / threads=12 / sliced_threads=0 / nr=0 / decimate=1 / interlaced=0 / bluray_compat=0 / constrained_intra=0 / bframes=3 / b_pyramid=2 / b_adapt=1 / b_bias=0 / direct=1 / weightb=1 / open_gop=0 / weightp=2 / keyint=60 / keyint_min=25 / scenecut=40 / intra_refresh=0 / rc_lookahead=40 / rc=2pass / mbtree=1 / bitrate=1000 / ratetol=1.0 / qcomp=0.60 / qpmin=10 / qpmax=51 / qpstep=4 / cplxblur=20.0 / qblur=0.5 / vbv_maxrate=1000 / vbv_bufsize=2000 / nal_hrd=none / ip_ratio=1.41 / aq=1:1.00
Language                                 : English
Audio
ID                                       : 2
Format                                   : AAC
Format/Info                              : Advanced Audio Codec
Format profile                           : LC
Codec ID                                 : 40
Duration                                 : 37mn 28s
Bit rate mode                            : Variable
Bit rate                                 : 96.0 Kbps
Maximum bit rate                         : 1 000 Kbps
Channel(s)                               : 2 channels
Channel positions                        : Front: L R
Sampling rate                            : 44.1 KHz
Compression mode                         : Lossy
Delay relative to video                  : -1s 24ms
Stream size                              : 25.7 MiB (9%)
Language                                 : English


Related Torrents
Torrent Name   AGE FILES SIZE

 Date: 04/25/17 07:21   in : XXX  Porno Clips 

30 sec 1

 Date: 04/25/17 07:14   in : XXX  Porno Clips 

7 min 1

 Date: 04/25/17 07:13   in : XXX  Porno Clips 

8 min 1

 Date: 04/25/17 07:10   in : XXX  Porno Clips 

10 min 1

 Date: 04/25/17 07:09   in : XXX  Porno Clips 

12 min 1

 Date: 04/25/17 07:08   in : XXX  Porno Clips 

13 min 1

 Date: 04/25/17 07:07   in : XXX  Porno Clips 

14 min 1

 Date: 04/25/17 07:06   in : XXX  Porno Clips 

15 min 1 351.7 MB

 Date: 04/25/17 07:05   in : XXX  Porno Clips 

16 min 1

 Date: 04/25/17 07:04   in : XXX  Porno Clips 

17 min 1 143.8 MB

 Date: 04/25/17 07:02   in : XXX  Porno Clips 

19 min 1 1 GB

 Date: 04/25/17 06:59   in : XXX  Porno Clips 

22 min 1 107.6 MB