Direct Download RealWifeStories - Isis Love - The Marriage Counselor mp4s torrent

download torrent
Size: 322.4 MB
Downloaded: 140
Hits: 106

Isis Love is happily married but can’t get over the fact that her adoring husband refuses to give her what she desires most—anal sex! So, when their goody-two-shoes neighbor, Xander Corvus, arrives to their house one day, Isis is determined to seduce him into fucking her in the ass—for the sake of saving her marriage of course! Can Xander save this couple’s deteriorating marriage by giving the busty, booty-licious babe the anal dicking she desires?

Format                                   : MPEG-4
Format profile                           : Base Media
Codec ID                                 : isom
File size                                : 322 MiB
Duration                                 : 40mn 2s
Overall bit rate                         : 1 126 Kbps
Writing application                      : Lavf57.28.100
Video
ID                                       : 1
Format                                   : AVC
Format/Info                              : Advanced Video Codec
Format profile                           : [email protected]
Format settings, CABAC                   : Yes
Format settings, ReFrames                : 5 frames
Codec ID                                 : avc1
Codec ID/Info                            : Advanced Video Coding
Duration                                 : 40mn 2s
Bit rate                                 : 1 000 Kbps
Width                                    : 854 pixels
Height                                   : 480 pixels
Display aspect ratio                     : 16:9
Original display aspect ratio            : 16:9
Frame rate mode                          : Constant
Frame rate                               : 23.976 fps
Color space                              : YUV
Chroma subsampling                       : 4:2:0
Bit depth                                : 8 bits
Scan type                                : Progressive
Bits/(Pixel*Frame)                       : 0.102
Stream size                              : 284 MiB (88%)
Writing library                          : x264 core 148 r2665 a01e339
Encoding settings                        : cabac=1 / ref=5 / deblock=1:0:0 / analyse=0x3:0x113 / me=umh / subme=8 / psy=1 / psy_rd=1.00:0.00 / mixed_ref=1 / me_range=16 / chroma_me=1 / trellis=1 / 8x8dct=1 / cqm=0 / deadzone=21,11 / fast_pskip=1 / chroma_qp_offset=-2 / threads=15 / lookahead_threads=2 / sliced_threads=0 / nr=0 / decimate=1 / interlaced=0 / bluray_compat=0 / constrained_intra=0 / bframes=3 / b_pyramid=2 / b_adapt=2 / b_bias=0 / direct=3 / weightb=1 / open_gop=0 / weightp=2 / keyint=60 / keyint_min=6 / scenecut=40 / intra_refresh=0 / rc_lookahead=50 / rc=abr / mbtree=1 / bitrate=1000 / ratetol=1.0 / qcomp=0.60 / qpmin=0 / qpmax=69 / qpstep=4 / ip_ratio=1.40 / aq=1:1.00
Language                                 : English
Tagged date                              : UTC 2016-05-18 07:26:01
Audio
ID                                       : 2
Format                                   : AAC
Format/Info                              : Advanced Audio Codec
Format profile                           : LC
Codec ID                                 : 40
Duration                                 : 40mn 2s
Duration_LastFrame                       : 21ms
Bit rate mode                            : Constant
Bit rate                                 : 128 Kbps
Channel(s)                               : 2 channels
Channel positions                        : Front: L R
Sampling rate                            : 48.0 KHz
Compression mode                         : Lossy
Stream size                              : 36.8 MiB (11%)
Language                                 : English
Tagged date                              : UTC 2016-05-18 07:26:01


NEW adulttorrent.org - Exclusive video only

Related Torrents
Torrent Name   AGE FILES SIZE

 Date: 06/01/18 00:15   in : XXX 

475 days 1

 Date: 06/01/18 00:12   in : XXX 

475 days 1

 Date: 06/01/18 00:09   in : XXX 

475 days 1

 Date: 06/01/18 00:07   in : XXX 

475 days 1

 Date: 06/01/18 00:04   in : XXX 

475 days 1

 Date: 06/01/18 00:03   in : XXX 

475 days 1

 Date: 06/01/18 00:02   in : XXX 

475 days 1

 Date: 06/01/18 00:02   in : XXX 

475 days 1

 Date: 05/31/18 23:59   in : XXX 

475 days 1

 Date: 05/31/18 23:51   in : XXX 

475 days 1

 Date: 05/31/18 23:51   in : XXX 

475 days 1

 Date: 05/31/18 23:50   in : XXX 

475 days 1