Direct Download PureMature.16.04.10.Anna.Bell.Peaks.Tattooed.Tits.XXX.1080p.MP4-KTR torrent

download torrent
Size: 1.5 GB
Downloaded: 114
Hits: 183

PureMature.16.04.10.Anna.Bell.Peaks.Tattooed.Tits.XXX.1080p.
MP4-KTR
Genre.......: Adult
Files.......: 32
Video.......: MP4
Date........: 2016-04-10
URL.........: http://www.puremature.com/

Video
ID                                       : 1
Format                                   : AVC
Format/Info                              : Advanced Video Codec
Format profile                           : [email protected]
Format settings, CABAC                   : No
Format settings, ReFrames                : 2 frames
Codec ID                                 : avc1
Codec ID/Info                            : Advanced Video Coding
Duration                                 : 30mn 0s
Bit rate                                 : 6 941 Kbps
Width                                    : 1 920 pixels
Height                                   : 1 080 pixels
Display aspect ratio                     : 16:9
Frame rate mode                          : Constant
Frame rate                               : 23.976 (23976/1000) fps
Color space                              : YUV
Chroma subsampling                       : 4:2:0
Bit depth                                : 8 bits
Scan type                                : Progressive
Bits/(Pixel*Frame)                       : 0.140
Stream size                              : 1.46 GiB (98%)
Writing library                          : x264 core 142 r2431 a5831aa
Encoding settings                        : cabac=0 / ref=2 / deblock=1:0:0 / analyse=0x1:0x111 / me=hex / subme=6 / psy=1 / psy_rd=1.00:0.00 / mixed_ref=1 / me_range=16 / chroma_me=1 / trellis=1 / 8x8dct=0 / cqm=0 / deadzone=21,11 / fast_pskip=1 / chroma_qp_offset=-2 / threads=2 / lookahead_threads=1 / sliced_threads=0 / nr=0 / decimate=1 / interlaced=0 / bluray_compat=0 / constrained_intra=0 / bframes=0 / weightp=0 / keyint=250 / keyint_min=23 / scenecut=40 / intra_refresh=0 / rc_lookahead=30 / rc=crf / mbtree=1 / crf=18.0 / qcomp=0.60 / qpmin=0 / qpmax=69 / qpstep=4 / ip_ratio=1.40 / aq=1:1.00
Language                                 : English
Encoded date                             : UTC 1904-01-01 00:00:00
Tagged date                              : UTC 1904-01-01 00:00:00
Audio
ID                                       : 2
Format                                   : AAC
Format/Info                              : Advanced Audio Codec
Format profile                           : LC
Codec ID                                 : 40
Duration                                 : 30mn 0s
Duration_LastFrame                       : 21ms
Bit rate mode                            : Constant
Bit rate                                 : 128 Kbps
Channel(s)                               : 2 channels
Channel positions                        : Front: L R
Sampling rate                            : 48.0 KHz
Frame rate                               : 46.875 fps (1024 spf)
Compression mode                         : Lossy
Stream size                              : 27.4 MiB (2%)
Language                                 : English
Default                                  : Yes
Alternate group                          : 1
Encoded date                             : UTC 1904-01-01 00:00:00
Tagged date                              : UTC 1904-01-01 00:00:00


NEW adulttorrent.org - Exclusive video only

Related Torrents
Torrent Name   AGE FILES SIZE

 Date: 06/01/18 00:15   in : XXX 

532 days 1

 Date: 06/01/18 00:12   in : XXX 

532 days 1

 Date: 06/01/18 00:09   in : XXX 

532 days 1

 Date: 06/01/18 00:07   in : XXX 

532 days 1

 Date: 06/01/18 00:04   in : XXX 

532 days 1

 Date: 06/01/18 00:03   in : XXX 

532 days 1

 Date: 06/01/18 00:02   in : XXX 

532 days 1

 Date: 06/01/18 00:02   in : XXX 

532 days 1

 Date: 05/31/18 23:59   in : XXX 

532 days 1

 Date: 05/31/18 23:51   in : XXX 

532 days 1

 Date: 05/31/18 23:51   in : XXX 

532 days 1

 Date: 05/31/18 23:50   in : XXX 

532 days 1