Direct Download PublicDisgrace.16.06.17.Silvia.Rubi.And.Alexa.Nasha.XXX.720p.MP4-KTR torrent

download torrent
Size: 1.6 GB
Downloaded: 95
Hits: 118

PublicDisgrace.16.06.17.Silvia.Rubi.And.Alexa.Nasha.XXX.720p.
MP4-KTR
Genre.......: Adult
Files.......: 34
Video.......: MP4
Date........: 2016-06-17
URL.........: http://www.publicdisgrace.com/

Video
ID                                       : 1
Format                                   : AVC
Format/Info                              : Advanced Video Codec
Format profile                           : [email protected]
Format settings, CABAC                   : Yes
Format settings, ReFrames                : 2 frames
Codec ID                                 : avc1
Codec ID/Info                            : Advanced Video Coding
Duration                                 : 43mn 45s
Bit rate mode                            : Variable
Bit rate                                 : 4 984 Kbps
Maximum bit rate                         : 7 000 Kbps
Width                                    : 1 280 pixels
Height                                   : 720 pixels
Display aspect ratio                     : 16:9
Frame rate mode                          : Constant
Frame rate                               : 29.970 (30000/1001) fps
Color space                              : YUV
Chroma subsampling                       : 4:2:0
Bit depth                                : 8 bits
Scan type                                : Progressive
Bits/(Pixel*Frame)                       : 0.180
Stream size                              : 1.52 GiB (97%)
Encoded date                             : UTC 1904-01-01 00:00:00
Tagged date                              : UTC 1904-01-01 00:00:00
Audio
ID                                       : 2
Format                                   : AAC
Format/Info                              : Advanced Audio Codec
Format profile                           : LC
Codec ID                                 : 40
Duration                                 : 43mn 45s
Bit rate mode                            : Variable
Bit rate                                 : 126 Kbps
Maximum bit rate                         : 137 Kbps
Channel(s)                               : 2 channels
Channel positions                        : Front: L R
Sampling rate                            : 44.1 KHz
Frame rate                               : 43.066 fps (1024 spf)
Compression mode                         : Lossy
Stream size                              : 39.3 MiB (2%)
Default                                  : Yes
Alternate group                          : 1
Encoded date                             : UTC 1904-01-01 00:00:00
Tagged date                              : UTC 1904-01-01 00:00:00


NEW adulttorrent.org - Exclusive video only

Related Torrents
Torrent Name   AGE FILES SIZE

 Date: 06/01/18 00:15   in : XXX 

509 days 1

 Date: 06/01/18 00:12   in : XXX 

509 days 1

 Date: 06/01/18 00:09   in : XXX 

509 days 1

 Date: 06/01/18 00:07   in : XXX 

509 days 1

 Date: 06/01/18 00:04   in : XXX 

509 days 1

 Date: 06/01/18 00:03   in : XXX 

509 days 1

 Date: 06/01/18 00:02   in : XXX 

509 days 1

 Date: 06/01/18 00:02   in : XXX 

509 days 1

 Date: 05/31/18 23:59   in : XXX 

509 days 1

 Date: 05/31/18 23:51   in : XXX 

509 days 1

 Date: 05/31/18 23:51   in : XXX 

509 days 1

 Date: 05/31/18 23:50   in : XXX 

509 days 1