Direct Download Asshole Exploration - 2015 Jules Jordan Video Web-DL Split Scenes torrent

download torrent
Size: 1.1 GB
Downloaded: 39
Hits: 155
     
Keisha Grey, Megan Rain, Romi Rain, Layla Price

Format                                   : MPEG-4
Format profile                           : Base Media
Codec ID                                 : isom
File size                                : 350 MiB
Duration                                 : 25mn 2s
Overall bit rate mode                    : Variable
Overall bit rate                         : 1 955 Kbps
Encoded date                             : UTC 2015-08-31 17:40:31
Tagged date                              : UTC 2015-08-31 17:40:31
Writing application                      : Lavf51.12.1
Video
ID                                       : 1
Format                                   : MPEG-4 Visual
Format profile                           : [email protected]
Format settings, BVOP                    : No
Format settings, QPel                    : No
Format settings, GMC                     : No warppoints
Format settings, Matrix                  : Default (H.263)
Codec ID                                 : 20
Duration                                 : 25mn 2s
Bit rate                                 : 1 801 Kbps
Width                                    : 856 pixels
Height                                   : 480 pixels
Display aspect ratio                     : 16:9
Frame rate mode                          : Constant
Frame rate                               : 29.970 fps
Color space                              : YUV
Chroma subsampling                       : 4:2:0
Bit depth                                : 8 bits
Scan type                                : Progressive
Compression mode                         : Lossy
Bits/(Pixel*Frame)                       : 0.146
Stream size                              : 323 MiB (92%)
Writing library                          : Lavc51.40.4
Language                                 : English
Encoded date                             : UTC 2015-08-31 17:40:31
Tagged date                              : UTC 2015-08-31 17:40:31
Audio
ID                                       : 2
Format                                   : AAC
Format/Info                              : Advanced Audio Codec
Format profile                           : LC
Codec ID                                 : 40
Duration                                 : 25mn 2s
Bit rate mode                            : Variable
Bit rate                                 : 149 Kbps
Channel(s)                               : 2 channels
Channel positions                        : Front: L R
Sampling rate                            : 44.1 KHz
Compression mode                         : Lossy
Stream size                              : 26.7 MiB (8%)
Language                                 : English
Encoded date                             : UTC 2015-08-31 17:40:31
Tagged date                              : UTC 2015-08-31 17:40:31


Related Torrents
Torrent Name   AGE FILES SIZE

 Date: 05/27/17 00:07   in : XXX  Porno Clips 

2 hours 1

 Date: 05/27/17 00:03   in : XXX  Porno Clips 

3 hours 1 348.8 MB

 Date: 05/27/17 00:03   in : XXX  Porno Clips 

3 hours 1 67.8 MB

 Date: 05/27/17 00:02   in : XXX  Porno Clips 

3 hours 1 183.3 MB

 Date: 05/27/17 00:00   in : XXX  Porno Clips 

3 hours 1 281.6 MB

 Date: 05/26/17 23:58   in : XXX  Porno Clips 

3 hours 1

 Date: 05/26/17 23:55   in : XXX  Porno Clips 

3 hours 1 445 MB

 Date: 05/26/17 23:50   in : XXX  Porno Clips 

3 hours 1 118.9 MB

 Date: 05/26/17 23:49   in : XXX  Porno Clips 

3 hours 1

 Date: 05/26/17 23:47   in : XXX  Porno Clips 

3 hours 1 414.6 MB

 Date: 05/26/17 23:46   in : XXX  Porno Clips 

3 hours 1

 Date: 05/26/17 23:45   in : XXX  Porno Clips 

3 hours 1 327.3 MB