Direct Download Private - Tia Layne - Big Tit Blonde Tia Layne Loves To Suck Cum Out Of Hard Cocks mp4 torrent

download torrent
Size: 195.6 MB
Downloaded: 136
Hits: 165

Video
ID                          : 2
Format                      : AVC
Format/Info                 : Advanced Video Codec
Format profile              : [email protected]
Format settings, CABAC      : Yes
Format settings, ReFrames   : 2 frames
Codec ID                    : avc1
Codec ID/Info               : Advanced Video Coding
Duration                    : 24mn 48s
Bit rate mode               : Variable
Bit rate                    : 1 006 Kbps
Maximum bit rate            : 768 Kbps
Width                       : 640 pixels
Height                      : 360 pixels
Display aspect ratio        : 16:9
Frame rate mode             : Constant
Frame rate                  : 25.000 fps
Color space                 : YUV
Chroma subsampling          : 4:2:0
Bit depth                   : 8 bits
Scan type                   : Progressive
Bits/(Pixel*Frame)          : 0.175
Stream size                 : 178 MiB (91%)
Title                       : Core Media Video
Color range                 : Limited
Color primaries             : BT.601 NTSC
Transfer characteristics    : BT.709
Matrix coefficients         : BT.601
Audio
ID                          : 1
Format                      : AAC
Format/Info                 : Advanced Audio Codec
Format profile              : LC
Codec ID                    : 40
Duration                    : 24mn 48s
Source duration             : 24mn 48s
Bit rate mode               : Constant
Bit rate                    : 96.0 Kbps
Channel(s)                  : 2 channels
Channel positions           : Front: L R
Sampling rate               : 44.1 KHz
Frame rate                  : 43.066 fps (1024 spf)
Compression mode            : Lossy
Stream size                 : 16.4 MiB (8%)
Source stream size          : 16.4 MiB (8%)
Title                       : Core Media Audio
Language                    : Spanish

NEW adulttorrent.org - Exclusive video only

Related Torrents
Torrent Name   AGE FILES SIZE

 Date: 06/01/18 00:15   in : XXX 

538 days 1

 Date: 06/01/18 00:12   in : XXX 

538 days 1

 Date: 06/01/18 00:09   in : XXX 

538 days 1

 Date: 06/01/18 00:07   in : XXX 

538 days 1

 Date: 06/01/18 00:04   in : XXX 

538 days 1

 Date: 06/01/18 00:03   in : XXX 

538 days 1

 Date: 06/01/18 00:02   in : XXX 

538 days 1

 Date: 06/01/18 00:02   in : XXX 

538 days 1

 Date: 05/31/18 23:59   in : XXX 

538 days 1

 Date: 05/31/18 23:51   in : XXX 

538 days 1

 Date: 05/31/18 23:51   in : XXX 

538 days 1

 Date: 05/31/18 23:50   in : XXX 

538 days 1