Direct Download Private - Chloe Lacourt - Skinny Blonde Was Born To Ride Big Cocks 720p mp4 torrent

download torrent
Size: 389.5 MB
Downloaded: 102
Hits: 130

Video
ID                          : 2
Format                      : AVC
Format/Info                 : Advanced Video Codec
Format profile              : [email protected]
Format settings, CABAC      : Yes
Format settings, ReFrames   : 2 frames
Codec ID                    : avc1
Codec ID/Info               : Advanced Video Coding
Duration                    : 20mn 42s
Bit rate mode               : Variable
Bit rate                    : 2 509 Kbps
Maximum bit rate            : 768 Kbps
Width                       : 1 280 pixels
Height                      : 720 pixels
Display aspect ratio        : 16:9
Frame rate mode             : Constant
Frame rate                  : 25.000 fps
Color space                 : YUV
Chroma subsampling          : 4:2:0
Bit depth                   : 8 bits
Scan type                   : Progressive
Bits/(Pixel*Frame)          : 0.109
Stream size                 : 372 MiB (95%)
Title                       : Core Media Video
Color range                 : Limited
Color primaries             : BT.709
Transfer characteristics    : BT.709
Matrix coefficients         : BT.709
Audio
ID                          : 1
Format                      : AAC
Format/Info                 : Advanced Audio Codec
Format profile              : LC
Codec ID                    : 40
Duration                    : 20mn 42s
Source duration             : 20mn 42s
Bit rate mode               : Constant
Bit rate                    : 117 Kbps
Nominal bit rate            : 128 Kbps
Channel(s)                  : 2 channels
Channel positions           : Front: L R
Sampling rate               : 44.1 KHz
Frame rate                  : 43.066 fps (1024 spf)
Compression mode            : Lossy
Stream size                 : 17.3 MiB (4%)
Source stream size          : 17.3 MiB (4%)
Title                       : Core Media Audio
Language                    : Spanish

NEW adulttorrent.org - Exclusive video only

Related Torrents
Torrent Name   AGE FILES SIZE

 Date: 06/01/18 00:15   in : XXX 

540 days 1

 Date: 06/01/18 00:12   in : XXX 

540 days 1

 Date: 06/01/18 00:09   in : XXX 

540 days 1

 Date: 06/01/18 00:07   in : XXX 

540 days 1

 Date: 06/01/18 00:04   in : XXX 

540 days 1

 Date: 06/01/18 00:03   in : XXX 

540 days 1

 Date: 06/01/18 00:02   in : XXX 

540 days 1

 Date: 06/01/18 00:02   in : XXX 

540 days 1

 Date: 05/31/18 23:59   in : XXX 

540 days 1

 Date: 05/31/18 23:51   in : XXX 

540 days 1

 Date: 05/31/18 23:51   in : XXX 

540 days 1

 Date: 05/31/18 23:50   in : XXX 

540 days 1