NEW BEST ADULT Torrent..Tsss....only for you!

Direct Download BangPOV - Liza Rowe 720p mp4 06 January 2016 torrent

download torrent
Size: 505.2 MB
Downloaded: 58
Hits: 185

ideo
ID                                       : 1
Format                                   : AVC
Format/Info                              : Advanced Video Codec
Format profile                           : [email protected]
Format settings, CABAC                   : Yes
Format settings, ReFrames                : 6 frames
Codec ID                                 : avc1
Codec ID/Info                            : Advanced Video Coding
Duration                                 : 27mn 15s
Bit rate                                 : 2 500 Kbps
Width                                    : 1 280 pixels
Height                                   : 720 pixels
Display aspect ratio                     : 16:9
Frame rate mode                          : Constant
Frame rate                               : 30.000 fps
Color space                              : YUV
Chroma subsampling                       : 4:2:0
Bit depth                                : 8 bits
Scan type                                : Progressive
Bits/(Pixel*Frame)                       : 0.090
Stream size                              : 485 MiB (96%)
Writing library                          : x264 core 124 r2019+178 69a0443
Encoding settings                        : cabac=1 / ref=6 / deblock=1:0:0 / analyse=0x1:0x111 / me=hex / subme=6 / psy=1 / psy_rd=1.00:0.00 / mixed_ref=1 / me_range=16 / chroma_me=1 / trellis=1 / 8x8dct=0 / cqm=0 / deadzone=21,11 / fast_pskip=1 / chroma_qp_offset=-2 / threads=12 / sliced_threads=0 / nr=0 / decimate=1 / interlaced=0 / bluray_compat=0 / constrained_intra=0 / bframes=3 / b_pyramid=2 / b_adapt=1 / b_bias=0 / direct=1 / weightb=1 / open_gop=0 / weightp=2 / keyint=60 / keyint_min=25 / scenecut=40 / intra_refresh=0 / rc_lookahead=40 / rc=2pass / mbtree=1 / bitrate=2500 / ratetol=1.0 / qcomp=0.60 / qpmin=10 / qpmax=51 / qpstep=4 / cplxblur=20.0 / qblur=0.5 / vbv_maxrate=2500 / vbv_bufsize=5000 / nal_hrd=none / ip_ratio=1.41 / aq=1:1.00
Language                                 : English
Audio
ID                                       : 2
Format                                   : AAC
Format/Info                              : Advanced Audio Codec
Format profile                           : LC
Codec ID                                 : 40
Duration                                 : 27mn 16s
Duration_LastFrame                       : -23ms
Bit rate mode                            : Variable
Bit rate                                 : 96.0 Kbps
Maximum bit rate                         : 2 500 Kbps
Channel(s)                               : 2 channels
Channel positions                        : Front: L R
Sampling rate                            : 44.1 KHz
Frame rate                               : 43.066 fps (1024 spf)
Compression mode                         : Lossy
Stream size                              : 18.7 MiB (4%)
Language                                 : English
Default                                  : Yes

NEW adulttorrent.org - Exclusive video only

Related Torrents
Torrent Name   AGE FILES SIZE

 Date: 02/17/19 04:32   in : Hardcore 

1 day 1 495.2 MB

 Date: 02/16/19 21:03   in : Hardcore 

1 day 3 988.6 MB

 Date: 02/16/19 20:56   in : Hardcore 

1 day 14 168.2 MB

 Date: 02/16/19 20:51   in : Hardcore 

1 day 1 221 MB

 Date: 02/16/19 20:45   in : Hardcore 

1 day 1 839.1 MB

 Date: 02/16/19 20:40   in : Hardcore 

1 day 1 5.5 GB

 Date: 02/16/19 20:32   in : Hardcore 

1 day 1 311.2 MB

 Date: 02/16/19 20:26   in : Hardcore 

1 day 1 610.9 MB

 Date: 02/16/19 20:13   in : Hardcore 

1 day 1 269.4 MB

 Date: 02/16/19 20:09   in : Hardcore 

1 day 1 931.1 MB

 Date: 02/16/19 20:01   in : Hardcore 

1 day 1 310.1 MB

 Date: 02/16/19 19:55   in : Hardcore 

1 day 1 182.8 MB