Direct Download POV.15.07.10.Valentina.Sweet.Perky.Outspoken.Valentina.XXX.720p.MP4.KTR torrent

download torrent
Size: 817.8 MB
Downloaded: 78
Hits: 195


Video
ID                                       : 1
Format                                   : AVC
Format/Info                              : Advanced Video Codec
Format profile                           : [email protected]
Format settings, CABAC                   : Yes
Format settings, ReFrames                : 3 frames
Codec ID                                 : avc1
Codec ID/Info                            : Advanced Video Coding
Duration                                 : 28mn 49s
Bit rate                                 : 3 834 Kbps
Width                                    : 1 280 pixels
Height                                   : 720 pixels
Display aspect ratio                     : 16:9
Frame rate mode                          : Constant
Frame rate                               : 25.000 fps
Standard                                 : PAL
Color space                              : YUV
Chroma subsampling                       : 4:2:0
Bit depth                                : 8 bits
Scan type                                : Progressive
Bits/(Pixel*Frame)                       : 0.166
Stream size                              : 791 MiB (97%)
Language                                 : English
Color primaries                          : BT.709-5, BT.1361, IEC 61966-2-4, SMPTE RP177
Transfer characteristics                 : BT.709-5, BT.1361
Matrix coefficients                      : BT.709-5, BT.1361, IEC 61966-2-4 709, SMPTE RP177
Audio
ID                                       : 2
Format                                   : AAC
Format/Info                              : Advanced Audio Codec
Format profile                           : LC
Codec ID                                 : 40
Duration                                 : 28mn 49s
Bit rate mode                            : Constant
Bit rate                                 : 125 Kbps
Channel(s)                               : 2 channels
Channel positions                        : Front: L R
Sampling rate                            : 48.0 KHz
Compression mode                         : Lossy
Stream size                              : 25.9 MiB (3%)
Language                                 : English


NEW adulttorrent.org - Exclusive video only

Related Torrents
Torrent Name   AGE FILES SIZE

 Date: 03/05/21 06:14   in : XXX 

13 hours 1

 Date: 03/05/21 06:11   in : XXX 

13 hours 1

 Date: 03/05/21 06:08   in : XXX 

14 hours 1

 Date: 03/05/21 06:07   in : XXX 

14 hours 1

 Date: 03/05/21 06:05   in : XXX 

14 hours 1

 Date: 03/05/21 05:58   in : XXX 

14 hours 1

 Date: 03/05/21 05:55   in : XXX 

14 hours 1

 Date: 03/05/21 05:53   in : XXX 

14 hours 1

 Date: 03/05/21 05:50   in : XXX 

14 hours 1

 Date: 03/05/21 05:48   in : XXX 

14 hours 1

 Date: 03/05/21 05:41   in : XXX 

14 hours 1

 Date: 03/05/21 05:36   in : XXX 

14 hours 1


Copyright © OnceSearch.com 2015-2019. OnceSearch.com provides only meta files (small .torrent files) on its web site, and hosts no actual file for download!!!