Direct Download PortaGloryhole.16.02.26.Sarah.XXX.1080p.MP4.KTR torrent

download torrent
Size: 1 GB
Downloaded: 105
Hits: 184


Video
ID                                       : 1
Format                                   : AVC
Format/Info                              : Advanced Video Codec
Format profile                           : [email protected]
Format settings, CABAC                   : Yes
Format settings, ReFrames                : 3 frames
Format settings, GOP                     : M=3, N=30
Codec ID                                 : avc1
Codec ID/Info                            : Advanced Video Coding
Duration                                 : 33mn 47s
Bit rate mode                            : Variable
Bit rate                                 : 4 032 Kbps
Maximum bit rate                         : 8 200 Kbps
Width                                    : 1 920 pixels
Height                                   : 1 082 pixels
Display aspect ratio                     : 16:9
Frame rate mode                          : Constant
Frame rate                               : 29.970 fps
Standard                                 : NTSC
Color space                              : YUV
Chroma subsampling                       : 4:2:0
Bit depth                                : 8 bits
Scan type                                : Progressive
Bits/(Pixel*Frame)                       : 0.065
Stream size                              : 975 MiB (93%)
Language                                 : English
Color primaries                          : BT.709-5, BT.1361, IEC 61966-2-4, SMPTE RP177
Transfer characteristics                 : BT.709-5, BT.1361
Matrix coefficients                      : BT.709-5, BT.1361, IEC 61966-2-4 709, SMPTE RP177
Audio
ID                                       : 2
Format                                   : AAC
Format/Info                              : Advanced Audio Codec
Format profile                           : LC
Codec ID                                 : 40
Duration                                 : 33mn 47s
Bit rate mode                            : Variable
Bit rate                                 : 317 Kbps
Maximum bit rate                         : 366 Kbps
Channel(s)                               : 2 channels
Channel positions                        : Front: L R
Sampling rate                            : 48.0 KHz
Compression mode                         : Lossy
Stream size                              : 76.7 MiB (7%)
Language                                 : English


NEW adulttorrent.org - Exclusive video only

Related Torrents
Torrent Name   AGE FILES SIZE

 Date: 06/01/18 00:15   in : XXX 

536 days 1

 Date: 06/01/18 00:12   in : XXX 

536 days 1

 Date: 06/01/18 00:09   in : XXX 

536 days 1

 Date: 06/01/18 00:07   in : XXX 

536 days 1

 Date: 06/01/18 00:04   in : XXX 

536 days 1

 Date: 06/01/18 00:03   in : XXX 

536 days 1

 Date: 06/01/18 00:02   in : XXX 

536 days 1

 Date: 06/01/18 00:02   in : XXX 

536 days 1

 Date: 05/31/18 23:59   in : XXX 

536 days 1

 Date: 05/31/18 23:51   in : XXX 

536 days 1

 Date: 05/31/18 23:51   in : XXX 

536 days 1

 Date: 05/31/18 23:50   in : XXX 

536 days 1