Direct Download UltimateSurrender.15.10.23.Cheyenne.Jewel.And.Izamar.Gutierrez.XXX.720p.MP4-KTR torrent

download torrent
Size: 2.6 GB
Downloaded: 95
Hits: 164

UltimateSurrender.15.10.23.Cheyenne.Jewel.And.Izamar.Gutierrez.
XXX.720p.MP4-KTR
Genre.......: Adult
Files.......: 56
Video.......: MP4
Date........: 2015-10-23
URL.........: http://www.ultimatesurrender.com/

Video
ID                                       : 1
Format                                   : AVC
Format/Info                              : Advanced Video Codec
Format profile                           : [email protected]
Format settings, CABAC                   : Yes
Format settings, ReFrames                : 2 frames
Codec ID                                 : avc1
Codec ID/Info                            : Advanced Video Coding
Duration                                 : 1h 12mn
Bit rate mode                            : Variable
Bit rate                                 : 4 987 Kbps
Maximum bit rate                         : 7 000 Kbps
Width                                    : 1 280 pixels
Height                                   : 720 pixels
Display aspect ratio                     : 16:9
Frame rate mode                          : Constant
Frame rate                               : 29.970 fps
Color space                              : YUV
Chroma subsampling                       : 4:2:0
Bit depth                                : 8 bits
Scan type                                : Progressive
Bits/(Pixel*Frame)                       : 0.181
Stream size                              : 2.52 GiB (97%)
Encoded date                             : UTC 1904-01-01 00:00:00
Tagged date                              : UTC 1904-01-01 00:00:00
Audio
ID                                       : 2
Format                                   : AAC
Format/Info                              : Advanced Audio Codec
Format profile                           : LC
Codec ID                                 : 40
Duration                                 : 1h 12mn
Bit rate mode                            : Variable
Bit rate                                 : 126 Kbps
Maximum bit rate                         : 138 Kbps
Channel(s)                               : 2 channels
Channel positions                        : Front: L R
Sampling rate                            : 44.1 KHz
Compression mode                         : Lossy
Stream size                              : 64.9 MiB (2%)
Encoded date                             : UTC 1904-01-01 00:00:00
Tagged date                              : UTC 1904-01-01 00:00:00

NEW adulttorrent.org - Exclusive video only

Related Torrents
Torrent Name   AGE FILES SIZE

 Date: 10/19/19 16:15   in : Latin 

3 days 2 313.6 MB

 Date: 10/04/19 08:33   in : Latin 

19 days 1 294.3 MB

 Date: 10/03/19 08:39   in : Latin 

20 days 2 386.8 MB

 Date: 10/02/19 08:52   in : Latin 

21 days 2 388.2 MB

 Date: 10/02/19 08:28   in : Latin 

21 days 2 339 MB

 Date: 09/25/19 08:29   in : Latin 

28 days 2 351.2 MB

 Date: 09/25/19 06:48   in : Latin 

28 days 2 276.2 MB

 Date: 09/23/19 13:20   in : Latin 

29 days 1 436.8 MB

 Date: 09/20/19 09:52   in : Latin 

33 days 1 2 GB

 Date: 09/10/19 08:20   in : Latin 

43 days 1 326.5 MB

 Date: 08/20/19 09:20   in : Latin 

64 days 1 285.7 MB

 Date: 08/09/19 12:49   in : Latin 

75 days 2 424.1 MB