Direct Download PinupFiles.16.04.15.Leanne.Crow.Pinup.Cami.2016.Part.1.April.15.2016.XXX.720p.MP4-YAPG torrent

download torrent
Size: 607.9 MB
Downloaded: 108
Hits: 177

. .. YES !!! ANOTHER P0RN GROUP - PROUDLY PRESENTS .. .
Release Name ...... :  PinupFiles.16.04.15.Leanne.Crow.Pinup.Cami.2016.Part.1.April.15.2016.XXX.720p.MP4-YAPG
URL ............... :  PinupFiles.com
Media ............. :  MP4
Resolution ........ :  1280x720 - 720p
Release Date ...... :  16.04.16
Genre ............. :  Big Boobs
Length ............ :   6min. 22sec.
Size .............. :  43 x 15MB 607.86 MB
.  .. R E L E A S E . I N F O R M A T I O N ..  .
Release notes :
New Porn for you.
Enjoy it
logo and info layout: YAPG     /     info last updated on : 10.10.17

Video
ID                                       : 2
Format                                   : AVC
Format/Info                              : Advanced Video Codec
Format profile                           : [email protected]
Format settings, CABAC                   : No
Format settings, ReFrames                : 2 frames
Codec ID                                 : avc1
Codec ID/Info                            : Advanced Video Coding
Duration                                 : 6mn 22s
Duration_LastFrame                       : -1ms
Bit rate                                 : 13.2 Mbps
Width                                    : 1 280 pixels
Height                                   : 720 pixels
Display aspect ratio                     : 16:9
Frame rate mode                          : Constant
Frame rate                               : 59.940 (59940/1000) fps
Color space                              : YUV
Chroma subsampling                       : 4:2:0
Bit depth                                : 8 bits
Scan type                                : Progressive
Bits/(Pixel*Frame)                       : 0.239
Stream size                              : 602 MiB (99%)
Language                                 : English
Encoded date                             : UTC 2016-04-15 20:39:30
Tagged date                              : UTC 2016-04-15 21:02:55
Color range                              : Limited
Color primaries                          : BT.709
Transfer characteristics                 : BT.709
Matrix coefficients                      : BT.709
Audio
ID                                       : 1
Format                                   : AAC
Format/Info                              : Advanced Audio Codec
Format profile                           : LC
Codec ID                                 : 40
Duration                                 : 6mn 22s
Source duration                          : 6mn 22s
Bit rate mode                            : Constant
Bit rate                                 : 128 Kbps
Channel(s)                               : 2 channels
Channel positions                        : Front: L R
Sampling rate                            : 44.1 KHz
Frame rate                               : 43.066 fps (1024 spf)
Compression mode                         : Lossy
Stream size                              : 5.90 MiB (1%)
Source stream size                       : 5.90 MiB (1%)
Language                                 : English
Encoded date                             : UTC 2016-04-15 20:39:30
Tagged date                              : UTC 2016-04-15 21:02:55


NEW adulttorrent.org - Exclusive video only

Related Torrents
Torrent Name   AGE FILES SIZE

 Date: 06/01/18 00:15   in : XXX 

500 days 1

 Date: 06/01/18 00:12   in : XXX 

500 days 1

 Date: 06/01/18 00:09   in : XXX 

500 days 1

 Date: 06/01/18 00:07   in : XXX 

500 days 1

 Date: 06/01/18 00:04   in : XXX 

500 days 1

 Date: 06/01/18 00:03   in : XXX 

500 days 1

 Date: 06/01/18 00:02   in : XXX 

500 days 1

 Date: 06/01/18 00:02   in : XXX 

500 days 1

 Date: 05/31/18 23:59   in : XXX 

500 days 1

 Date: 05/31/18 23:51   in : XXX 

500 days 1

 Date: 05/31/18 23:51   in : XXX 

500 days 1

 Date: 05/31/18 23:50   in : XXX 

500 days 1