Direct Download PinupFiles.15.07.08.Monica.Mendez.HD.WebCam.7.SelfTanner.XXX.720p.MP4.YAPG torrent

download torrent
Size: 762.6 MB
Downloaded: 146
Hits: 219


Video
ID                                       : 2
Format                                   : AVC
Format/Info                              : Advanced Video Codec
Format profile                           : [email protected]
Format settings, CABAC                   : No
Format settings, ReFrames                : 2 frames
Codec ID                                 : avc1
Codec ID/Info                            : Advanced Video Coding
Duration                                 : 8mn 5s
Bit rate                                 : 13.0 Mbps
Width                                    : 1 280 pixels
Height                                   : 720 pixels
Display aspect ratio                     : 16:9
Frame rate mode                          : Constant
Frame rate                               : 29.970 fps
Color space                              : YUV
Chroma subsampling                       : 4:2:0
Bit depth                                : 8 bits
Scan type                                : Progressive
Bits/(Pixel*Frame)                       : 0.472
Stream size                              : 754 MiB (99%)
Language                                 : English
Encoded date                             : UTC 2015-07-07 20:44:55
Tagged date                              : UTC 2015-07-07 21:00:25
Color primaries                          : BT.709-5, BT.1361, IEC 61966-2-4, SMPTE RP177
Transfer characteristics                 : BT.709-5, BT.1361
Matrix coefficients                      : BT.709-5, BT.1361, IEC 61966-2-4 709, SMPTE RP177
Audio
ID                                       : 1
Format                                   : AAC
Format/Info                              : Advanced Audio Codec
Format profile                           : LC
Codec ID                                 : 40
Duration                                 : 8mn 5s
Source duration                          : 8mn 5s
Bit rate mode                            : Constant
Bit rate                                 : 128 Kbps
Channel(s)                               : 2 channels
Channel positions                        : Front: L R
Sampling rate                            : 44.1 KHz
Compression mode                         : Lossy
Delay relative to video                  : -167ms
Stream size                              : 7.46 MiB (1%)
Source stream size                       : 7.46 MiB (1%)
Language                                 : English
Encoded date                             : UTC 2015-07-07 20:44:55
Tagged date                              : UTC 2015-07-07 21:00:25


NEW adulttorrent.org - Exclusive video only

Related Torrents
Torrent Name   AGE FILES SIZE

 Date: 03/05/21 06:14   in : XXX 

14 hours 1

 Date: 03/05/21 06:11   in : XXX 

14 hours 1

 Date: 03/05/21 06:08   in : XXX 

14 hours 1

 Date: 03/05/21 06:07   in : XXX 

14 hours 1

 Date: 03/05/21 06:05   in : XXX 

14 hours 1

 Date: 03/05/21 05:58   in : XXX 

14 hours 1

 Date: 03/05/21 05:55   in : XXX 

14 hours 1

 Date: 03/05/21 05:53   in : XXX 

14 hours 1

 Date: 03/05/21 05:50   in : XXX 

14 hours 1

 Date: 03/05/21 05:48   in : XXX 

14 hours 1

 Date: 03/05/21 05:41   in : XXX 

14 hours 1

 Date: 03/05/21 05:36   in : XXX 

14 hours 1


Copyright © OnceSearch.com 2015-2019. OnceSearch.com provides only meta files (small .torrent files) on its web site, and hosts no actual file for download!!!