Direct Download PascalsSubSluts.16.05.19.Harley.Sin.XXX.1080p.MP4.KTR torrent

download torrent
Size: 1,022.7 MB
Downloaded: 218
Hits: 283


Video
ID                                       : 1
Format                                   : AVC
Format/Info                              : Advanced Video Codec
Format profile                           : [email protected]
Format settings, CABAC                   : Yes
Format settings, ReFrames                : 4 frames
Codec ID                                 : avc1
Codec ID/Info                            : Advanced Video Coding
Duration                                 : 43mn 8s
Bit rate                                 : 3 200 Kbps
Width                                    : 1 920 pixels
Height                                   : 1 080 pixels
Display aspect ratio                     : 16:9
Frame rate mode                          : Constant
Frame rate                               : 25.000 fps
Color space                              : YUV
Chroma subsampling                       : 4:2:0
Bit depth                                : 8 bits
Scan type                                : Progressive
Bits/(Pixel*Frame)                       : 0.062
Stream size                              : 987 MiB (97%)
Writing library                          : x264 core 130 r2273 b3065e6
Encoding settings                        : cabac=1 / ref=3 / deblock=1:0:0 / analyse=0x1:0x111 / me=hex / subme=7 / psy=1 / psy_rd=1.00:0.00 / mixed_ref=1 / me_range=16 / chroma_me=1 / trellis=1 / 8x8dct=0 / cqm=0 / deadzone=21,11 / fast_pskip=1 / chroma_qp_offset=-2 / threads=12 / lookahead_threads=2 / sliced_threads=0 / nr=0 / decimate=1 / interlaced=0 / bluray_compat=0 / constrained_intra=0 / bframes=3 / b_pyramid=2 / b_adapt=1 / b_bias=0 / direct=1 / weightb=1 / open_gop=0 / weightp=2 / keyint=250 / keyint_min=25 / scenecut=40 / intra_refresh=0 / rc_lookahead=40 / rc=2pass / mbtree=1 / bitrate=3200 / ratetol=1.0 / qcomp=0.60 / qpmin=0 / qpmax=69 / qpstep=4 / cplxblur=20.0 / qblur=0.5 / vbv_maxrate=20000 / vbv_bufsize=25000 / nal_hrd=none / ip_ratio=1.40 / aq=1:1.00
Color primaries                          : BT.709-5, BT.1361, IEC 61966-2-4, SMPTE RP177
Transfer characteristics                 : BT.709-5, BT.1361
Matrix coefficients                      : BT.709-5, BT.1361, IEC 61966-2-4 709, SMPTE RP177
Audio
ID                                       : 2
Format                                   : AAC
Format/Info                              : Advanced Audio Codec
Format profile                           : LC
Codec ID                                 : 40
Duration                                 : 43mn 8s
Bit rate mode                            : Variable
Bit rate                                 : 107 Kbps
Maximum bit rate                         : 116 Kbps
Channel(s)                               : 2 channels
Channel positions                        : Front: L R
Sampling rate                            : 48.0 KHz
Compression mode                         : Lossy
Delay relative to video                  : -7s 200ms
Stream size                              : 33.2 MiB (3%)
Language                                 : English


NEW adulttorrent.org - Exclusive video only

Related Torrents
Torrent Name   AGE FILES SIZE

 Date: 06/01/18 00:15   in : XXX 

529 days 1

 Date: 06/01/18 00:12   in : XXX 

529 days 1

 Date: 06/01/18 00:09   in : XXX 

529 days 1

 Date: 06/01/18 00:07   in : XXX 

529 days 1

 Date: 06/01/18 00:04   in : XXX 

529 days 1

 Date: 06/01/18 00:03   in : XXX 

529 days 1

 Date: 06/01/18 00:02   in : XXX 

529 days 1

 Date: 06/01/18 00:02   in : XXX 

529 days 1

 Date: 05/31/18 23:59   in : XXX 

529 days 1

 Date: 05/31/18 23:51   in : XXX 

529 days 1

 Date: 05/31/18 23:51   in : XXX 

529 days 1

 Date: 05/31/18 23:50   in : XXX 

529 days 1