Direct Download Only-Opaques.16.06.06.Rosie.Rees.XXX.1080p.MP4-KTR torrent

download torrent
Size: 121.8 MB
Downloaded: 81
Hits: 82

Only-Opaques.16.06.06.Rosie.Rees.XXX.1080p.MP4-KTR
Genre.......: Adult
Files.......: 9
Video.......: MP4
Date........: 2016-06-06
URL.........: http://www.only-opaques.com/

Video
ID                                       : 1
Format                                   : AVC
Format/Info                              : Advanced Video Codec
Format profile                           : [email protected]
Format settings, CABAC                   : Yes
Format settings, ReFrames                : 3 frames
Codec ID                                 : avc1
Codec ID/Info                            : Advanced Video Coding
Duration                                 : 5mn 43s
Bit rate                                 : 2 902 Kbps
Width                                    : 1 920 pixels
Height                                   : 1 080 pixels
Display aspect ratio                     : 16:9
Frame rate mode                          : Constant
Frame rate                               : 25.000 fps
Color space                              : YUV
Chroma subsampling                       : 4:2:0
Bit depth                                : 8 bits
Scan type                                : Progressive
Bits/(Pixel*Frame)                       : 0.056
Stream size                              : 119 MiB (98%)
Writing library                          : Zencoder Video Encoding System
Encoded date                             : UTC 1904-01-01 00:00:00
Tagged date                              : UTC 1904-01-01 00:00:00
Color range                              : Limited
Color primaries                          : BT.709
Transfer characteristics                 : BT.709
Matrix coefficients                      : BT.709
Audio
ID                                       : 2
Format                                   : AAC
Format/Info                              : Advanced Audio Codec
Format profile                           : LC
Codec ID                                 : 40
Duration                                 : 5mn 44s
Bit rate mode                            : Variable
Bit rate                                 : 64.2 Kbps
Maximum bit rate                         : 69.4 Kbps
Channel(s)                               : 2 channels
Channel positions                        : Front: L R
Sampling rate                            : 48.0 KHz
Frame rate                               : 46.875 fps (1024 spf)
Compression mode                         : Lossy
Stream size                              : 2.63 MiB (2%)
Default                                  : Yes
Alternate group                          : 1
Encoded date                             : UTC 1904-01-01 00:00:00
Tagged date                              : UTC 1904-01-01 00:00:00


NEW adulttorrent.org - Exclusive video only

Related Torrents
Torrent Name   AGE FILES SIZE

 Date: 06/01/18 00:15   in : XXX 

534 days 1

 Date: 06/01/18 00:12   in : XXX 

534 days 1

 Date: 06/01/18 00:09   in : XXX 

534 days 1

 Date: 06/01/18 00:07   in : XXX 

534 days 1

 Date: 06/01/18 00:04   in : XXX 

534 days 1

 Date: 06/01/18 00:03   in : XXX 

534 days 1

 Date: 06/01/18 00:02   in : XXX 

534 days 1

 Date: 06/01/18 00:02   in : XXX 

534 days 1

 Date: 05/31/18 23:59   in : XXX 

534 days 1

 Date: 05/31/18 23:51   in : XXX 

534 days 1

 Date: 05/31/18 23:51   in : XXX 

534 days 1

 Date: 05/31/18 23:50   in : XXX 

534 days 1