Direct Download MrsCreampie.Mercedes.Carrera.mp4 torrent

download torrent
Size: 604.2 MB
Downloaded: 54
Hits: 84


Video
ID                                       : 1
Format                                   : AVC
Format/Info                              : Advanced Video Codec
Format profile                           : [email protected]
Format settings, CABAC                   : Yes
Format settings, ReFrames                : 4 frames
Codec ID                                 : avc1
Codec ID/Info                            : Advanced Video Coding
Duration                                 : 31mn 2s
Bit rate                                 : 2 601 Kbps
Width                                    : 854 pixels
Height                                   : 480 pixels
Display aspect ratio                     : 16:9
Frame rate mode                          : Constant
Frame rate                               : 24.000 fps
Color space                              : YUV
Chroma subsampling                       : 4:2:0
Bit depth                                : 8 bits
Scan type                                : Progressive
Bits/(Pixel*Frame)                       : 0.264
Stream size                              : 578 MiB (96%)
Writing library                          : x264 core 136
Encoding settings                        : cabac=1 / ref=4 / deblock=1:0:0 / analyse=0x3:0x113 / me=umh / subme=7 / psy=1 / psy_rd=0.00:0.00 / mixed_ref=1 / me_range=16 / chroma_me=1 / trellis=1 / 8x8dct=1 / cqm=0 / deadzone=21,11 / fast_pskip=0 / chroma_qp_offset=0 / threads=48 / lookahead_threads=3 / sliced_threads=0 / nr=0 / decimate=1 / interlaced=0 / bluray_compat=0 / constrained_intra=0 / bframes=16 / b_pyramid=2 / b_adapt=1 / b_bias=0 / direct=1 / weightb=1 / open_gop=0 / weightp=2 / keyint=300 / keyint_min=25 / scenecut=40 / intra_refresh=0 / rc_lookahead=40 / rc=2pass / mbtree=1 / bitrate=2601 / ratetol=1.0 / qcomp=0.50 / qpmin=8 / qpmax=51 / qpstep=4 / cplxblur=20.0 / qblur=0.5 / ip_ratio=1.41 / aq=1:1.00
Language                                 : English
Audio
ID                                       : 2
Format                                   : AAC
Format/Info                              : Advanced Audio Codec
Format profile                           : LC
Codec ID                                 : 40
Duration                                 : 31mn 3s
Duration_LastFrame                       : -9ms
Bit rate mode                            : Variable
Bit rate                                 : 112 Kbps
Maximum bit rate                         : 128 Kbps
Channel(s)                               : 2 channels
Channel positions                        : Front: L R
Sampling rate                            : 44.1 KHz
Compression mode                         : Lossy
Delay relative to video                  : -2ms
Stream size                              : 24.9 MiB (4%)
Language                                 : English


NEW adulttorrent.org - Exclusive video only

Related Torrents
Torrent Name   AGE FILES SIZE

 Date: 06/01/18 00:15   in : XXX 

540 days 1

 Date: 06/01/18 00:12   in : XXX 

540 days 1

 Date: 06/01/18 00:09   in : XXX 

540 days 1

 Date: 06/01/18 00:07   in : XXX 

540 days 1

 Date: 06/01/18 00:04   in : XXX 

540 days 1

 Date: 06/01/18 00:03   in : XXX 

540 days 1

 Date: 06/01/18 00:02   in : XXX 

540 days 1

 Date: 06/01/18 00:02   in : XXX 

540 days 1

 Date: 05/31/18 23:59   in : XXX 

540 days 1

 Date: 05/31/18 23:51   in : XXX 

540 days 1

 Date: 05/31/18 23:51   in : XXX 

540 days 1

 Date: 05/31/18 23:50   in : XXX 

540 days 1