Direct Download MoneyTalks - Skyla Novea, Katalina Mills - Hustle hunnie mp4 torrent

download torrent
Size: 845 MB
Downloaded: 147
Hits: 309

The crew took over a bikini shop and kept a lookout for some hotties willing to do anything for cash. There is always hot young ladies in SoBe that love to get loose and have a good time. We tracked down one to get things started, and the others just walked in the store. We can\'t say enough about the ladies down here, and what they love to do for a wad of cash. Tits and ass is what they give us to play with as we make the hundo\'s rain. Towards the end of the day Skyla Nova came in looking for a new bikini that would get her man\'s attention. We picked one out, and she agreed to model it for us. When she came out of the dressing room we knew she was the one we wanted to blow our wad on, literally speaking. Her body was banging. She had it going on and it turned out she was horny. Honestly that wasn\'t a surprise because we knew that these beach babes are always hot and horny. We gave her the rest of our cash, and she took the dick. She made our week from her sexy freckled face to her feet.

Format                                   : MPEG-4
Format profile                           : Base Media / Version 2
Codec ID                                 : mp42
File size                                : 845 MiB
Duration                                 : 33mn 23s
Overall bit rate mode                    : Variable
Overall bit rate                         : 3 538 Kbps
Encoded date                             : UTC 2016-04-04 23:27:29
Tagged date                              : UTC 2016-04-04 23:27:29
Writing library                          : Apple QuickTime
Video
ID                                       : 1
Format                                   : AVC
Format/Info                              : Advanced Video Codec
Format profile                           : [email protected]
Format settings, CABAC                   : No
Format settings, ReFrames                : 6 frames
Codec ID                                 : avc1
Codec ID/Info                            : Advanced Video Coding
Duration                                 : 33mn 23s
Source duration                          : 33mn 23s
Bit rate mode                            : Variable
Bit rate                                 : 3 357 Kbps
Maximum bit rate                         : 3 500 Kbps
Width                                    : 1 024 pixels
Height                                   : 576 pixels
Display aspect ratio                     : 16:9
Frame rate mode                          : Constant
Frame rate                               : 29.970 fps
Standard                                 : Component
Color space                              : YUV
Chroma subsampling                       : 4:2:0
Bit depth                                : 8 bits
Scan type                                : Progressive
Bits/(Pixel*Frame)                       : 0.190
Stream size                              : 802 MiB (95%)
Source stream size                       : 836 MiB
Encoded date                             : UTC 2016-04-04 23:27:29
Tagged date                              : UTC 2016-04-03 23:27:51
Audio
ID                                       : 2
Format                                   : AAC
Format/Info                              : Advanced Audio Codec
Format profile                           : LC
Codec ID                                 : 40
Duration                                 : 33mn 23s
Bit rate mode                            : Variable
Bit rate                                 : 32.0 Kbps
Maximum bit rate                         : 34.7 Kbps
Channel(s)                               : 1 channel
Channel positions                        : Front: C
Sampling rate                            : 32.0 KHz
Compression mode                         : Lossy
Stream size                              : 7.64 MiB (1%)
Encoded date                             : UTC 2016-04-04 23:27:29
Tagged date                              : UTC 2016-04-03 23:27:51


NEW adulttorrent.org - Exclusive video only

Related Torrents
Torrent Name   AGE FILES SIZE

 Date: 06/01/18 00:15   in : XXX 

538 days 1

 Date: 06/01/18 00:12   in : XXX 

538 days 1

 Date: 06/01/18 00:09   in : XXX 

538 days 1

 Date: 06/01/18 00:07   in : XXX 

538 days 1

 Date: 06/01/18 00:04   in : XXX 

538 days 1

 Date: 06/01/18 00:03   in : XXX 

538 days 1

 Date: 06/01/18 00:02   in : XXX 

538 days 1

 Date: 06/01/18 00:02   in : XXX 

538 days 1

 Date: 05/31/18 23:59   in : XXX 

538 days 1

 Date: 05/31/18 23:51   in : XXX 

538 days 1

 Date: 05/31/18 23:51   in : XXX 

538 days 1

 Date: 05/31/18 23:50   in : XXX 

538 days 1