Direct Download MomsLickTeens.Chanel.Preston.Jillian.Janson.Love.To.Lick.mp4 torrent

download torrent
Size: 323.6 MB
Downloaded: 135
Hits: 242


Video
ID                                       : 1
Format                                   : AVC
Format/Info                              : Advanced Video Codec
Format profile                           : [email protected]
Format settings, CABAC                   : No
Format settings, ReFrames                : 6 frames
Codec ID                                 : avc1
Codec ID/Info                            : Advanced Video Coding
Duration                                 : 29mn 21s
Source duration                          : 29mn 21s
Bit rate mode                            : Variable
Bit rate                                 : 1 438 Kbps
Maximum bit rate                         : 1 500 Kbps
Width                                    : 768 pixels
Height                                   : 432 pixels
Display aspect ratio                     : 16:9
Frame rate mode                          : Constant
Frame rate                               : 29.970 fps
Standard                                 : Component
Color space                              : YUV
Chroma subsampling                       : 4:2:0
Bit depth                                : 8 bits
Scan type                                : Progressive
Bits/(Pixel*Frame)                       : 0.145
Stream size                              : 302 MiB (93%)
Source stream size                       : 316 MiB (98%)
Encoded date                             : UTC 2016-04-07 19:36:00
Tagged date                              : UTC 2016-04-07 21:36:58
Audio
ID                                       : 2
Format                                   : AAC
Format/Info                              : Advanced Audio Codec
Format profile                           : LC
Codec ID                                 : 40
Duration                                 : 29mn 21s
Bit rate mode                            : Variable
Bit rate                                 : 32.0 Kbps
Maximum bit rate                         : 36.0 Kbps
Channel(s)                               : 1 channel
Channel positions                        : Front: C
Sampling rate                            : 32.0 KHz
Compression mode                         : Lossy
Stream size                              : 6.72 MiB (2%)
Encoded date                             : UTC 2016-04-07 19:36:00
Tagged date                              : UTC 2016-04-07 21:36:58


NEW adulttorrent.org - Exclusive video only

Related Torrents
Torrent Name   AGE FILES SIZE

 Date: 06/01/18 00:15   in : XXX 

537 days 1

 Date: 06/01/18 00:12   in : XXX 

537 days 1

 Date: 06/01/18 00:09   in : XXX 

537 days 1

 Date: 06/01/18 00:07   in : XXX 

537 days 1

 Date: 06/01/18 00:04   in : XXX 

537 days 1

 Date: 06/01/18 00:03   in : XXX 

537 days 1

 Date: 06/01/18 00:02   in : XXX 

537 days 1

 Date: 06/01/18 00:02   in : XXX 

537 days 1

 Date: 05/31/18 23:59   in : XXX 

537 days 1

 Date: 05/31/18 23:51   in : XXX 

537 days 1

 Date: 05/31/18 23:51   in : XXX 

537 days 1

 Date: 05/31/18 23:50   in : XXX 

537 days 1