Direct Download MomsBangTeens - Silvia Saige, Ally Tate - Titty bang mp4 torrent

download torrent
Size: 466.3 MB
Downloaded: 197
Hits: 266

Ally Tate was upset with her boyfriend Xander Corvus. She dressed to impress for her dance, yet he showed up looking like a bum. Luckily her step mom Silvia Saige had an idea how to save the situation. She would appeal to Ally\'s wild side. Easier done than said. She pulled Ally\'s dress down slightly to expose an erect nipple and kissed the girl. Next she opened Xander\'s pants and took out his giant penis. As she started to suck him Ally\'s wild side was starting to get interested. She joined in on the picturesque double blowjob. Next she climbed on top of Xander\'s cock and was riding him while her step mom was kissing her. When she switched directions Silvia started to lick out her butt hole. More double blow job, more fucking, more anal play. Yes there are many fun ways how to fill 42 minutes and Xander filled both pussies with his wiener. After Xander came into Silvia\'s mouth and face she shared some of the cum with Ally.

Format                                   : MPEG-4
Format profile                           : Base Media / Version 2
Codec ID                                 : mp42
File size                                : 466 MiB
Duration                                 : 42mn 20s
Overall bit rate mode                    : Variable
Overall bit rate                         : 1 540 Kbps
Encoded date                             : UTC 2016-06-03 19:51:25
Tagged date                              : UTC 2016-06-03 19:51:25
Writing library                          : Apple QuickTime
Video
ID                                       : 1
Format                                   : AVC
Format/Info                              : Advanced Video Codec
Format profile                           : [email protected]
Format settings, CABAC                   : No
Format settings, ReFrames                : 6 frames
Codec ID                                 : avc1
Codec ID/Info                            : Advanced Video Coding
Duration                                 : 42mn 20s
Source duration                          : 42mn 20s
Bit rate mode                            : Variable
Bit rate                                 : 1 438 Kbps
Maximum bit rate                         : 1 500 Kbps
Width                                    : 768 pixels
Height                                   : 432 pixels
Display aspect ratio                     : 16:9
Frame rate mode                          : Constant
Frame rate                               : 29.970 fps
Standard                                 : Component
Color space                              : YUV
Chroma subsampling                       : 4:2:0
Bit depth                                : 8 bits
Scan type                                : Progressive
Bits/(Pixel*Frame)                       : 0.145
Stream size                              : 435 MiB (93%)
Source stream size                       : 455 MiB
Encoded date                             : UTC 2016-06-03 19:51:25
Tagged date                              : UTC 2016-06-02 19:52:09
Audio
ID                                       : 2
Format                                   : AAC
Format/Info                              : Advanced Audio Codec
Format profile                           : LC
Codec ID                                 : 40
Duration                                 : 42mn 20s
Bit rate mode                            : Variable
Bit rate                                 : 32.0 Kbps
Maximum bit rate                         : 35.6 Kbps
Channel(s)                               : 1 channel
Channel positions                        : Front: C
Sampling rate                            : 32.0 KHz
Compression mode                         : Lossy
Stream size                              : 9.69 MiB (2%)
Encoded date                             : UTC 2016-06-03 19:51:25
Tagged date                              : UTC 2016-06-02 19:52:09


NEW adulttorrent.org - Exclusive video only

Related Torrents
Torrent Name   AGE FILES SIZE

 Date: 06/01/18 00:15   in : XXX 

540 days 1

 Date: 06/01/18 00:12   in : XXX 

540 days 1

 Date: 06/01/18 00:09   in : XXX 

540 days 1

 Date: 06/01/18 00:07   in : XXX 

540 days 1

 Date: 06/01/18 00:04   in : XXX 

540 days 1

 Date: 06/01/18 00:03   in : XXX 

540 days 1

 Date: 06/01/18 00:02   in : XXX 

540 days 1

 Date: 06/01/18 00:02   in : XXX 

540 days 1

 Date: 05/31/18 23:59   in : XXX 

540 days 1

 Date: 05/31/18 23:51   in : XXX 

540 days 1

 Date: 05/31/18 23:51   in : XXX 

540 days 1

 Date: 05/31/18 23:50   in : XXX 

540 days 1