Direct Download MomPOV - Sabrina - Curvy All Natural Italian Woman - Е325 mp4 torrent

download torrent
Size: 732.5 MB
Downloaded: 224
Hits: 453

Here’s a 34 year old beautiful all natural woman doing her very first adult video. You guys seem to like women with a nice big round booty. You should like her. Her ass is legit. Nothing wrong with her big natural tits either. All the right curves. She just got out of a serious relationship with another woman. Yes, you heard right, she is an ex-lesbian. Apparently, she got sick of vagina and just wanted some cock. She came to the right place. Nick gave her the dick she’s been craving. At the end of this video Nick put it in her mouth. His cumshot that is.

Format                                   : MPEG-4
Format profile                           : Base Media
Codec ID                                 : isom
File size                                : 733 MiB
Duration                                 : 1h 0mn
Overall bit rate mode                    : Constant
Overall bit rate                         : 1 696 Kbps
Writing application                      : Lavf55.12.100
Video
ID                                       : 2
Format                                   : AVC
Format/Info                              : Advanced Video Codec
Format profile                           : [email protected]
Format settings, CABAC                   : Yes
Format settings, ReFrames                : 3 frames
Format settings, GOP                     : M=1, N=12
Codec ID                                 : avc1
Codec ID/Info                            : Advanced Video Coding
Duration                                 : 1h 0mn
Bit rate mode                            : Constant
Bit rate                                 : 1 504 Kbps
Width                                    : 854 pixels
Height                                   : 480 pixels
Display aspect ratio                     : 16:9
Frame rate mode                          : Constant
Frame rate                               : 29.970 fps
Color space                              : YUV
Chroma subsampling                       : 4:2:0
Bit depth                                : 8 bits
Scan type                                : Progressive
Bits/(Pixel*Frame)                       : 0.122
Stream size                              : 648 MiB (88%)
Language                                 : English
Audio
ID                                       : 1
Format                                   : AAC
Format/Info                              : Advanced Audio Codec
Format profile                           : LC
Codec ID                                 : 40
Duration                                 : 1h 0mn
Bit rate mode                            : Constant
Bit rate                                 : 192 Kbps
Channel(s)                               : 2 channels
Channel positions                        : Front: L R
Sampling rate                            : 48.0 KHz
Compression mode                         : Lossy
Stream size                              : 81.8 MiB (11%)
Language                                 : English


Related Torrents
Torrent Name   AGE FILES SIZE

 Date: 04/26/17 12:35   in : XXX 

15 min 1 211.8 MB

 Date: 04/26/17 12:32   in : XXX 

19 min 1

 Date: 04/26/17 11:50   in : XXX 

1 hour 1 1.9 GB

 Date: 04/26/17 11:42   in : XXX 

1 hour 1 2.1 GB

 Date: 04/26/17 11:30   in : XXX 

1 hour 1 2.4 GB

 Date: 04/26/17 11:08   in : XXX 

1 hour 1

 Date: 04/26/17 10:46   in : XXX 

2 hours 1 234.3 MB

 Date: 04/26/17 10:45   in : XXX 

2 hours 1

 Date: 04/26/17 10:24   in : XXX 

2 hours 1 771.7 MB

 Date: 04/26/17 10:17   in : XXX 

2 hours 1 898.7 MB

 Date: 04/26/17 10:08   in : XXX 

2 hours 1

 Date: 04/26/17 10:07   in : XXX 

2 hours 1