Direct Download MilfHunter.Lyla.Double.Dip.mp4 torrent

download torrent
Size: 388.3 MB
Downloaded: 85
Hits: 180


Video
ID                                       : 1
Format                                   : AVC
Format/Info                              : Advanced Video Codec
Format profile                           : [email protected]
Format settings, CABAC                   : No
Format settings, ReFrames                : 6 frames
Codec ID                                 : avc1
Codec ID/Info                            : Advanced Video Coding
Duration                                 : 35mn 15s
Source duration                          : 35mn 15s
Bit rate mode                            : Variable
Bit rate                                 : 1 438 Kbps
Maximum bit rate                         : 1 500 Kbps
Width                                    : 768 pixels
Height                                   : 432 pixels
Display aspect ratio                     : 16:9
Frame rate mode                          : Constant
Frame rate                               : 29.970 fps
Standard                                 : Component
Color space                              : YUV
Chroma subsampling                       : 4:2:0
Bit depth                                : 8 bits
Scan type                                : Progressive
Bits/(Pixel*Frame)                       : 0.145
Stream size                              : 362 MiB (93%)
Source stream size                       : 379 MiB (98%)
Encoded date                             : UTC 2016-04-09 12:32:15
Tagged date                              : UTC 2016-04-08 12:33:39
Audio
ID                                       : 2
Format                                   : AAC
Format/Info                              : Advanced Audio Codec
Format profile                           : LC
Codec ID                                 : 40
Duration                                 : 35mn 15s
Bit rate mode                            : Variable
Bit rate                                 : 32.0 Kbps
Maximum bit rate                         : 35.2 Kbps
Channel(s)                               : 1 channel
Channel positions                        : Front: C
Sampling rate                            : 32.0 KHz
Compression mode                         : Lossy
Stream size                              : 8.07 MiB (2%)
Encoded date                             : UTC 2016-04-09 12:32:15
Tagged date                              : UTC 2016-04-08 12:33:39


NEW adulttorrent.org - Exclusive video only

Related Torrents
Torrent Name   AGE FILES SIZE

 Date: 06/01/18 00:15   in : XXX 

561 days 1

 Date: 06/01/18 00:12   in : XXX 

561 days 1

 Date: 06/01/18 00:09   in : XXX 

561 days 1

 Date: 06/01/18 00:07   in : XXX 

561 days 1

 Date: 06/01/18 00:04   in : XXX 

561 days 1

 Date: 06/01/18 00:03   in : XXX 

561 days 1

 Date: 06/01/18 00:02   in : XXX 

561 days 1

 Date: 06/01/18 00:02   in : XXX 

561 days 1

 Date: 05/31/18 23:59   in : XXX 

561 days 1

 Date: 05/31/18 23:51   in : XXX 

561 days 1

 Date: 05/31/18 23:51   in : XXX 

561 days 1

 Date: 05/31/18 23:50   in : XXX 

561 days 1


Copyright © OnceSearch.com 2015-2018. OnceSearch.com provides only meta files (small .torrent files) on its web site, and hosts no actual file for download!!!