Direct Download MILF.Fantasy.XXX.DVDRip.x264-STARLETS torrent

download torrent
Size: 2.5 GB
Downloaded: 267
Hits: 612

oPi
RELEASE.DATE____2015.6.30             iNFo
DVD.DATE________2015.6.30
PROD.YEAR_______2015
SOURCE__________DVD
AUDIO.BITRATE___128 kb/s AAC (LC)
VIDEO.BITRATE___1650 kb/s @ 19CRF
COMPANY_________Brazzers
SiZE____________53x50MB
RUNNING.TIME____3h16m20s
CODEC___________x264
GENRE___________All Sex, MILF
pLOt
MILF.Fantasy.XXX.DVDRip.x264-STARLETS
http://www.cduniverse.com/productinfo.asp?pid=9849370
Story : MILF Fantasy Starring Lisa Ann!
Nailing The Part
Veronica Avluv is super pumped about her
audition for the next big Xander Corvus film,
but when it gets to be her turn to try out, she
finds Keisha Grey there, already down on her
knees and sucking his fat cock. MILF Fantasy
DVD video They both want the part, so they\'re
going to try their best to prove who the
sexiest All-American slut is.
The Goddess Of Big Cock
Lisa Ann, the Goddess of Big Cock, has been
sitting on her golden throne for ages, fucking
her way through all the biggest cocks on Mount
Olympus MILF Fantasy movie. But when her
manservant Marcus tells her that she\'s finally
fucked every dick in the heavens, Lisa is
furious!
Something For The Cock
Is sexy MILF Brandi Love going to get her hands
on her late husband\'s estate? MILF Fantasy
adult DVD. His whorish mistress Ash Hollywood
just showed up to make her own tempting claim
to that massive fortune MILF Fantasy buy. The
only way to convince Clover to give them
special treatment is by competing over his cock
MILF Fantasy porn.
Sharing My Roommate\'s Cock
Kiara Mia heard a little rumor about her best
friend Bridgette\'s roommate Keiran and it\'s so
fucking spicy they just have to know for
themselves if it\'s true MILF Fantasy DVD video.
Bridgette convinced her slutty friend to
initiate a nasty little threesome and see if
they can\'t just have their pussies pounded by
that huge cock MILF Fantasy movie.
Learning From The Best
Noelle Easton walked into a private sex club
with nothing but the clothes on her back MILF
Fantasy adult DVD. Lucky for her, a seasoned
veteran of the skin-game was there to take her
under her wing and show her how to pleasure the
rich dudes MILF Fantasy buy. Holly Halston
schools her in the kind of finesse that\'ll
bring in the big bucks MILF Fantasy porn.
Cast : Lisa Ann, Holly Halston, Brandi Love, Bridgette
B., Ariella Ferrera, Veronica Avluv, Ash
Hollywood, Kiara Mia, Noelle Easton, Keisha
Grey
Notes : Extras feature a bonus scene with Ariella Ferrara.
nEWs
&&
gREETiNGs
WE ARE THE STARLETS.
HERE TO BRING YOU HIGH QUALITY
PORN FOR YOUR PLEASURE.
AFFECTION BLOW CONDITION COCAIN
DoggPound DPXXXHD EDGEISO SHOCKISO
oPi
20 09

Video
ID                                       : 1
Format                                   : AVC
Format/Info                              : Advanced Video Codec
Format profile                           : [email protected]
Format settings, CABAC                   : Yes
Format settings, ReFrames                : 5 frames
Codec ID                                 : avc1
Codec ID/Info                            : Advanced Video Coding
Duration                                 : 3h 16mn
Bit rate                                 : 1 650 Kbps
Width                                    : 720 pixels
Height                                   : 406 pixels
Display aspect ratio                     : 16:9
Frame rate mode                          : Constant
Frame rate                               : 29.970 fps
Color space                              : YUV
Chroma subsampling                       : 4:2:0
Bit depth                                : 8 bits
Scan type                                : Progressive
Bits/(Pixel*Frame)                       : 0.188
Stream size                              : 2.26 GiB (92%)
Writing library                          : x264 core 146 r2538 121396c
Encoding settings                        : cabac=1 / ref=5 / deblock=1:-2:-2 / analyse=0x3:0x113 / me=umh / subme=8 / psy=1 / psy_rd=1.00:0.00 / mixed_ref=1 / me_range=16 / chroma_me=1 / trellis=1 / 8x8dct=1 / cqm=0 / deadzone=21,11 / fast_pskip=1 / chroma_qp_offset=-2 / threads=24 / lookahead_threads=3 / sliced_threads=0 / nr=0 / decimate=1 / interlaced=0 / bluray_compat=0 / constrained_intra=0 / bframes=3 / b_pyramid=2 / b_adapt=2 / b_bias=0 / direct=3 / weightb=1 / open_gop=0 / weightp=2 / keyint=300 / keyint_min=30 / scenecut=40 / intra_refresh=0 / rc_lookahead=50 / rc=crf / mbtree=1 / crf=19.0 / qcomp=0.60 / qpmin=0 / qpmax=69 / qpstep=4 / ip_ratio=1.40 / aq=1:0.70
Encoded date                             : UTC 1904-01-01 00:00:00
Tagged date                              : UTC 1904-01-01 00:00:00
Audio
ID                                       : 2
Format                                   : AAC
Format/Info                              : Advanced Audio Codec
Format profile                           : LC
Codec ID                                 : 40
Duration                                 : 3h 16mn
Bit rate mode                            : Constant
Bit rate                                 : 128 Kbps
Channel(s)                               : 2 channels
Channel positions                        : Front: L R
Sampling rate                            : 48.0 KHz
Compression mode                         : Lossy
Stream size                              : 180 MiB (7%)
Encoded date                             : UTC 1904-01-01 00:00:00
Tagged date                              : UTC 1904-01-01 00:00:00
Menu #1
ID                                       : 3
Codec ID                                 : text
Duration                                 : 3h 16mn
Language                                 : English
Encoded date                             : UTC 1904-01-01 00:00:00
Tagged date                              : UTC 1904-01-01 00:00:00
Bit rate mode                            : CBR
00:00:00.000                             : Chapter 01
00:06:31.400                             : Chapter 02
00:17:08.700                             : Chapter 03
00:22:27.200                             : Chapter 04
00:35:10.534                             : Chapter 05
00:46:07.701                             : Chapter 06
00:47:15.901                             : Chapter 07
00:54:58.668                             : Chapter 08
01:00:37.168                             : Chapter 09
01:13:06.935                             : Chapter 10
01:18:26.935                             : Chapter 11
01:19:03.435                             : Chapter 12
01:30:49.303                             : Chapter 13
01:35:01.303                             : Chapter 14
01:47:05.004                             : Chapter 15
01:57:59.938                             : Chapter 16
01:58:42.272                             : Chapter 17
02:05:18.839                             : Chapter 18
02:10:33.839                             : Chapter 19
02:18:08.872                             : Chapter 20
02:30:38.673                             : Chapter 21
02:31:29.440                             : Chapter 22
02:43:29.840                             : Chapter 23
02:48:15.107                             : Chapter 24
03:00:25.041                             : Chapter 25
03:13:13.975                             : Chapter 26
03:15:48.909                             : Chapter 27
03:16:06.909                             : Chapter 28
Menu #2
00:00:00.000                             : Chapter 01
00:06:31.400                             : Chapter 02
00:17:08.700                             : Chapter 03
00:22:27.200                             : Chapter 04
00:35:10.534                             : Chapter 05
00:46:07.701                             : Chapter 06
00:47:15.901                             : Chapter 07
00:54:58.668                             : Chapter 08
01:00:37.168                             : Chapter 09
01:13:06.935                             : Chapter 10
01:18:26.935                             : Chapter 11
01:19:03.435                             : Chapter 12
01:30:49.303                             : Chapter 13
01:35:01.303                             : Chapter 14
01:47:05.004                             : Chapter 15
01:57:59.938                             : Chapter 16
01:58:42.272                             : Chapter 17
02:05:18.839                             : Chapter 18
02:10:33.839                             : Chapter 19
02:18:08.872                             : Chapter 20
02:30:38.673                             : Chapter 21
02:31:29.440                             : Chapter 22
02:43:29.840                             : Chapter 23
02:48:15.107                             : Chapter 24
03:00:25.041                             : Chapter 25
03:13:13.975                             : Chapter 26
03:15:48.909                             : Chapter 27
03:16:06.909                             : Chapter 28


Related Torrents
Torrent Name   AGE FILES SIZE

 Date: 06/25/17 06:32   in : XXX 

9 hours 1 1.1 GB

 Date: 06/25/17 06:31   in : XXX 

9 hours 4 1.8 GB

 Date: 06/25/17 06:29   in : XXX 

9 hours 1 1.1 GB

 Date: 06/25/17 06:28   in : XXX 

9 hours 1

 Date: 06/25/17 06:27   in : XXX 

9 hours 96 34.8 GB

 Date: 06/25/17 06:22   in : XXX 

9 hours 4 2.3 GB

 Date: 06/25/17 06:21   in : XXX 

9 hours 1 1.4 GB

 Date: 06/25/17 06:19   in : XXX 

9 hours 1 813.8 MB

 Date: 06/25/17 06:19   in : XXX 

9 hours 1 1 GB

 Date: 06/25/17 06:06   in : XXX 

9 hours 5 1.5 GB

 Date: 06/25/17 05:59   in : XXX 

9 hours 1 1.6 GB

 Date: 06/25/17 05:56   in : XXX 

9 hours 1