Direct Download Mature - Nikola (18), Oriana (45) - OldGuy11AA torrent

download torrent
Size: 563.3 MB
Downloaded: 100
Hits: 208

Video
ID                          : 224 (0xE0)
Format                      : MPEG Video
Format version              : Version 1
Format settings, BVOP       : Yes
Format settings, Matrix     : Default
Format settings, GOP        : M=3, N=15
Duration                    : 37mn 1s
Bit rate                    : 2 000 Kbps
Width                       : 352 pixels
Height                      : 288 pixels
Display aspect ratio        : 1.222
Frame rate                  : 25.000 fps
Standard                    : PAL
Color space                 : YUV
Chroma subsampling          : 4:2:0
Bit depth                   : 8 bits
Scan type                   : Progressive
Compression mode            : Lossy
Bits/(Pixel*Frame)          : 0.789
Time code of first frame    : 00:00:00:00
Time code source            : Group of pictures header
GOP, Open/Closed            : Open
Stream size                 : 527 MiB (93%)
Audio
ID                          : 192 (0xC0)
Format                      : MPEG Audio
Format version              : Version 1
Format profile              : Layer 2
Duration                    : 37mn 1s
Bit rate mode               : Constant
Bit rate                    : 96.0 Kbps
Channel(s)                  : 2 channels
Sampling rate               : 48.0 KHz
Compression mode            : Lossy
Delay relative to video     : -80ms
Stream size                 : 25.4 MiB (5%)


NEW adulttorrent.org - Exclusive video only

Related Torrents
Torrent Name   AGE FILES SIZE

 Date: 06/01/18 00:15   in : XXX 

728 days 1

 Date: 06/01/18 00:12   in : XXX 

728 days 1

 Date: 06/01/18 00:09   in : XXX 

728 days 1

 Date: 06/01/18 00:07   in : XXX 

728 days 1

 Date: 06/01/18 00:04   in : XXX 

728 days 1

 Date: 06/01/18 00:03   in : XXX 

728 days 1

 Date: 06/01/18 00:02   in : XXX 

728 days 1

 Date: 06/01/18 00:02   in : XXX 

728 days 1

 Date: 05/31/18 23:59   in : XXX 

728 days 1

 Date: 05/31/18 23:51   in : XXX 

728 days 1

 Date: 05/31/18 23:51   in : XXX 

728 days 1

 Date: 05/31/18 23:50   in : XXX 

728 days 1


Copyright © OnceSearch.com 2015-2019. OnceSearch.com provides only meta files (small .torrent files) on its web site, and hosts no actual file for download!!!