Direct Download Massive Boobs Vol. 2 - 2016 Elegant Angel Web-DL Split Scenes mp4 torrent

download torrent
Size: 1.3 GB
Downloaded: 253
Hits: 1179
     
Cast:
Alexis Fawx, Romi Rain, Jaclyn Taylor, Veronica Vain
Elegant Angel Presents \"MASSIVE BOOBS VOL 2\" over 2 hours of big tit action!! Size Does Matter! Elegant Angel proudly presents Massive Boobs 2 . Watch Romi Rain, Veronica Vain, Alexis Fawx and Jaclyn Taylor show off there gigantic mammaries. Created for the lovers of big, beautiful, bouncing bulbous boobies! Massive Boobs features a great all star cast, pristine camera work, and high end production values. Be sure not to miss this outstanding production. Starring Romi Rain, Veronica Vain, Alexis Fawx and Jaclyn Taylor! Enjoy

Format                                   : MPEG-4
Format profile                           : Base Media
Codec ID                                 : isom
File size                                : 356 MiB
Duration                                 : 31mn 50s
Overall bit rate                         : 1 565 Kbps
Encoded date                             : UTC 2016-04-12 14:52:43
Tagged date                              : UTC 2016-04-12 14:52:43
Video
ID                                       : 1
Format                                   : AVC
Format/Info                              : Advanced Video Codec
Format profile                           : [email protected]
Format settings, CABAC                   : Yes
Format settings, ReFrames                : 5 frames
Codec ID                                 : avc1
Codec ID/Info                            : Advanced Video Coding
Duration                                 : 31mn 50s
Bit rate                                 : 1 516 Kbps
Width                                    : 854 pixels
Height                                   : 480 pixels
Display aspect ratio                     : 16:9
Frame rate mode                          : Constant
Frame rate                               : 29.970 fps
Color space                              : YUV
Chroma subsampling                       : 4:2:0
Bit depth                                : 8 bits
Scan type                                : Progressive
Bits/(Pixel*Frame)                       : 0.123
Stream size                              : 345 MiB (97%)
Tagged date                              : UTC 2016-04-12 14:52:58
Audio
ID                                       : 2
Format                                   : AAC
Format/Info                              : Advanced Audio Codec
Format profile                           : LC
Codec ID                                 : 40
Duration                                 : 31mn 50s
Bit rate mode                            : Constant
Bit rate                                 : 44.0 Kbps
Channel(s)                               : 2 channels
Channel positions                        : Front: L R
Sampling rate                            : 48.0 KHz
Compression mode                         : Lossy
Stream size                              : 10.0 MiB (3%)
Tagged date                              : UTC 2016-04-12 14:52:58


NEW adulttorrent.org - Exclusive video only

Related Torrents
Torrent Name   AGE FILES SIZE

 Date: 06/01/18 00:15   in : XXX 

532 days 1

 Date: 06/01/18 00:12   in : XXX 

532 days 1

 Date: 06/01/18 00:09   in : XXX 

532 days 1

 Date: 06/01/18 00:07   in : XXX 

532 days 1

 Date: 06/01/18 00:04   in : XXX 

532 days 1

 Date: 06/01/18 00:03   in : XXX 

532 days 1

 Date: 06/01/18 00:02   in : XXX 

532 days 1

 Date: 06/01/18 00:02   in : XXX 

532 days 1

 Date: 05/31/18 23:59   in : XXX 

532 days 1

 Date: 05/31/18 23:51   in : XXX 

532 days 1

 Date: 05/31/18 23:51   in : XXX 

532 days 1

 Date: 05/31/18 23:50   in : XXX 

532 days 1