Direct Download Manhandled 7 - Evil Angel 2016 WEB-DL 540p SPLIT SCENES torrent

download torrent
Size: 4.1 GB
Downloaded: 209
Hits: 363
Starring: Gabriella Paltrova, Kacie Castle, Ziggy Star, Liza Rowe
Description: Director Aiden Riley\'s popular combo of freewheeling, behind-the-scenes chat and creatively kinky sex allows his performers to try out unexplored fantasies. Catering to the submissive side of his female cast, Aiden\'s \'Manhandled 7\' is filled with intense, nasty, male-dominant action mixed with revealing, honest sexual conversations. Bubble-butt beauty Gabriella Paltrova has not been paying her rent, so pissed-off landlord Bill Bailey offsets the balance with a brutal face fucking and sodomy payment plan. Gabi gets her pretty face showered in goo. All cute Kacie Castle wants to do is play video games. Math tutor Owen Gray gives her some sexual discipline, including choking, slapping, spitting and aggressive anal reaming. Adorable, petite, curly-haired Ziggy Star submits to an epic manhandling, including a slobbery deep throat blow job, a sodomy session, a shower fuck and more. Curvaceous, young Liza Rowe takes Mr. Pete\'s sturdy, stiff member inside her sweet pussy in a passionate scene with slapping, throat fucking and a butt plug up her big, amazing ass.
Video
ID                          : 1
Format                      : AVC
Format/Info                 : Advanced Video Codec
Format profile              : [email protected]
Format settings, CABAC      : Yes
Format settings, ReFrames   : 4 frames
Codec ID                    : avc1
Codec ID/Info               : Advanced Video Coding
Duration                    : 39mn 1s
Bit rate                    : 1 800 Kbps
Width                       : 960 pixels
Height                      : 544 pixels
Display aspect ratio        : 16:9
Original display aspect rat : 16:9
Frame rate mode             : Constant
Frame rate                  : 29.970 (29970/1000) fps
Color space                 : YUV
Chroma subsampling          : 4:2:0
Bit depth                   : 8 bits
Scan type                   : Progressive
Bits/(Pixel*Frame)          : 0.115
Stream size                 : 502 MiB (90%)
Writing library             : x264 core 148
Encoding settings           : cabac=1 / ref=3 / deblock=1:0:0 / analyse=0x3:0x113 / me=umh / subme=7 / psy=1 / psy_rd=1.00:0.00 / mixed_ref=1 / me_range=16 / chroma_me=1 / trellis=1 / 8x8dct=1 / cqm=0 / deadzone=21,11 / fast_pskip=1 / chroma_qp_offset=-2 / threads=17 / lookahead_threads=2 / sliced_threads=0 / nr=0 / decimate=1 / interlaced=0 / bluray_compat=0 / constrained_intra=0 / bframes=3 / b_pyramid=2 / b_adapt=1 / b_bias=0 / direct=1 / weightb=1 / open_gop=0 / weightp=2 / keyint=250 / keyint_min=25 / scenecut=40 / intra_refresh=0 / rc_lookahead=40 / rc=abr / mbtree=1 / bitrate=1800 / ratetol=1.0 / qcomp=0.60 / qpmin=0 / qpmax=69 / qpstep=4 / ip_ratio=1.40 / aq=1:1.00
Audio
ID                          : 2
Format                      : AAC
Format/Info                 : Advanced Audio Codec
Format profile              : LC
Codec ID                    : 40
Duration                    : 39mn 1s
Duration_LastFrame          : -6ms
Bit rate mode               : Constant
Bit rate                    : 192 Kbps
Channel(s)                  : 2 channels
Channel positions           : Front: L R
Sampling rate               : 44.1 KHz
Frame rate                  : 43.066 fps (1024 spf)
Compression mode            : Lossy
Stream size                 : 53.6 MiB (10%)
Default                     : Yes
Alternate group             : 1


NEW adulttorrent.org - Exclusive video only

Related Torrents
Torrent Name   AGE FILES SIZE

 Date: 06/01/18 00:15   in : XXX 

500 days 1

 Date: 06/01/18 00:12   in : XXX 

500 days 1

 Date: 06/01/18 00:09   in : XXX 

500 days 1

 Date: 06/01/18 00:07   in : XXX 

500 days 1

 Date: 06/01/18 00:04   in : XXX 

500 days 1

 Date: 06/01/18 00:03   in : XXX 

500 days 1

 Date: 06/01/18 00:02   in : XXX 

500 days 1

 Date: 06/01/18 00:02   in : XXX 

500 days 1

 Date: 05/31/18 23:59   in : XXX 

500 days 1

 Date: 05/31/18 23:51   in : XXX 

500 days 1

 Date: 05/31/18 23:51   in : XXX 

500 days 1

 Date: 05/31/18 23:50   in : XXX 

500 days 1