Direct Download Love-Moms.16.04.07.Sandra.Milka.XXX.720p.WMV-KTR torrent

download torrent
Size: 903.7 MB
Downloaded: 128
Hits: 202

Love-Moms.16.04.07.Sandra.Milka.XXX.720p.WMV-KTR
Genre.......: Adult
Files.......: 20
Video.......: WMV
Date........: 2016-04-08
URL.........: http://www.love-moms.com/

Video
ID                                       : 1
Format                                   : VC-1
Format profile                           : [email protected]
Codec ID                                 : WVC1
Codec ID/Hint                            : Microsoft
Description of the codec                 : vc1
Duration                                 : 27mn 3s
Bit rate                                 : 4 349 Kbps
Width                                    : 1 280 pixels
Height                                   : 720 pixels
Display aspect ratio                     : 16:9
Frame rate                               : 25.000 fps
Color space                              : YUV
Chroma subsampling                       : 4:2:0
Bit depth                                : 8 bits
Scan type                                : Progressive
Compression mode                         : Lossy
Bits/(Pixel*Frame)                       : 0.189
Stream size                              : 841 MiB (93%)
Audio
ID                                       : 2
Format                                   : WMA
Format version                           : Version 2
Codec ID                                 : 161
Codec ID/Info                            : Windows Media Audio
Description of the codec                 : Windows Media Audio V8
Duration                                 : 27mn 3s
Bit rate                                 : 128 Kbps
Channel(s)                               : 2 channels
Sampling rate                            : 48.0 KHz
Bit depth                                : 16 bits
Stream size                              : 24.8 MiB (3%)


NEW adulttorrent.org - Exclusive video only

Related Torrents
Torrent Name   AGE FILES SIZE

 Date: 06/01/18 00:15   in : XXX 

537 days 1

 Date: 06/01/18 00:12   in : XXX 

537 days 1

 Date: 06/01/18 00:09   in : XXX 

537 days 1

 Date: 06/01/18 00:07   in : XXX 

537 days 1

 Date: 06/01/18 00:04   in : XXX 

537 days 1

 Date: 06/01/18 00:03   in : XXX 

537 days 1

 Date: 06/01/18 00:02   in : XXX 

537 days 1

 Date: 06/01/18 00:02   in : XXX 

537 days 1

 Date: 05/31/18 23:59   in : XXX 

537 days 1

 Date: 05/31/18 23:51   in : XXX 

537 days 1

 Date: 05/31/18 23:51   in : XXX 

537 days 1

 Date: 05/31/18 23:50   in : XXX 

537 days 1