Direct Download AbbyWinters.16.08.20.Lana.S.And.Sophie.Lesbian.Before.XXX.INTERNAL.1080p.MP4.KTR torrent

download torrent
Size: 1.2 GB
Downloaded: 132
Hits: 180


Video
ID                                       : 1
Format                                   : AVC
Format/Info                              : Advanced Video Codec
Format profile                           : [email protected]
Format settings, CABAC                   : Yes
Format settings, ReFrames                : 3 frames
Format settings, GOP                     : M=4, N=25
Codec ID                                 : avc1
Codec ID/Info                            : Advanced Video Coding
Duration                                 : 13mn 57s
Bit rate                                 : 11.7 Mbps
Width                                    : 1 920 pixels
Height                                   : 1 080 pixels
Display aspect ratio                     : 16:9
Frame rate mode                          : Constant
Frame rate                               : 25.000 fps
Standard                                 : PAL
Color space                              : YUV
Chroma subsampling                       : 4:2:0
Bit depth                                : 8 bits
Scan type                                : Progressive
Bits/(Pixel*Frame)                       : 0.225
Stream size                              : 1.14 GiB (99%)
Color primaries                          : BT.709-5, BT.1361, IEC 61966-2-4, SMPTE RP177
Transfer characteristics                 : BT.709-5, BT.1361
Matrix coefficients                      : BT.709-5, BT.1361, IEC 61966-2-4 709, SMPTE RP177
Audio
ID                                       : 2
Format                                   : AAC
Format/Info                              : Advanced Audio Codec
Format profile                           : LC
Codec ID                                 : 40
Duration                                 : 13mn 57s
Bit rate mode                            : Constant
Bit rate                                 : 157 Kbps
Channel(s)                               : 1 channel
Channel positions                        : Front: C
Sampling rate                            : 48.0 KHz
Compression mode                         : Lossy
Delay relative to video                  : -1s 0ms
Stream size                              : 15.7 MiB (1%)

NEW adulttorrent.org - Exclusive video only

Related Torrents
Torrent Name   AGE FILES SIZE

 Date: 10/05/19 13:48   in : Pissing 

233 days 4 2 GB

 Date: 09/17/18 12:41   in : Pissing 

616 days 1 1.9 GB

 Date: 08/04/18 10:47   in : Pissing 

660 days 1 425.1 MB

 Date: 07/28/18 17:53   in : Pissing 

667 days 1 965.2 MB

 Date: 07/27/18 15:28   in : Pissing 

668 days 1 790.6 MB

 Date: 06/18/18 09:29   in : Pissing 

707 days 1 1.1 GB

 Date: 05/06/18 13:08   in : Pissing 

750 days 1 749.1 MB

 Date: 05/06/18 12:57   in : Pissing 

750 days 1 830.5 MB

 Date: 03/31/18 17:47   in : Pissing 

786 days 1 5.6 GB

 Date: 03/15/18 04:39   in : Pissing 

803 days 3 2 GB

 Date: 02/22/18 21:24   in : Pissing 

823 days 1 1 GB

 Date: 02/12/18 14:31   in : Pissing 

833 days 1 1.2 GB


Copyright © OnceSearch.com 2015-2019. OnceSearch.com provides only meta files (small .torrent files) on its web site, and hosts no actual file for download!!!