Direct Download HotLegsAndFeet.15.09.28.Mea.Melone.XXX.1080p.MP4-KTR torrent

download torrent
Size: 945.5 MB
Downloaded: 173
Hits: 248

HotLegsAndFeet.15.09.28.Mea.Melone.XXX.1080p.MP4-KTR
Genre.......: Adult
Files.......: 20
Video.......: MP4
Date........: 2015-09-28
URL.........: http://www.hotlegsandfeet.com/

Video
ID                                       : 1
Format                                   : AVC
Format/Info                              : Advanced Video Codec
Format profile                           : [email protected]
Format settings, CABAC                   : Yes
Format settings, ReFrames                : 3 frames
Codec ID                                 : avc1
Codec ID/Info                            : Advanced Video Coding
Duration                                 : 16mn 7s
Bit rate mode                            : Variable
Bit rate                                 : 8 000 Kbps
Width                                    : 1 920 pixels
Height                                   : 1 080 pixels
Display aspect ratio                     : 16:9
Frame rate mode                          : Constant
Frame rate                               : 29.970 fps
Standard                                 : NTSC
Color space                              : YUV
Chroma subsampling                       : 4:2:0
Bit depth                                : 8 bits
Scan type                                : Progressive
Bits/(Pixel*Frame)                       : 0.129
Stream size                              : 923 MiB (98%)
Language                                 : English
Encoded date                             : UTC 1904-01-01 00:00:00
Tagged date                              : UTC 1904-01-01 00:00:00
Color range                              : Limited
Color primaries                          : BT.709
Transfer characteristics                 : BT.709
Matrix coefficients                      : BT.709
Audio
ID                                       : 2
Format                                   : AAC
Format/Info                              : Advanced Audio Codec
Format profile                           : LC
Codec ID                                 : 40
Duration                                 : 16mn 7s
Bit rate mode                            : Variable
Bit rate                                 : 192 Kbps
Maximum bit rate                         : 283 Kbps
Channel(s)                               : 2 channels
Channel positions                        : Front: L R
Sampling rate                            : 48.0 KHz
Compression mode                         : Lossy
Stream size                              : 21.8 MiB (2%)
Language                                 : English
Encoded date                             : UTC 1904-01-01 00:00:00
Tagged date                              : UTC 1904-01-01 00:00:00

NEW adulttorrent.org - Exclusive video only

Related Torrents
Torrent Name   AGE FILES SIZE

 Date: 10/20/19 19:51   in : Asian 

226 days 1 4.6 GB

 Date: 10/20/19 19:48   in : Asian 

226 days 1 4.6 GB

 Date: 10/20/19 19:39   in : Asian 

226 days 1 5 GB

 Date: 10/20/19 19:17   in : Asian 

226 days 3 617.7 MB

 Date: 10/20/19 18:59   in : Asian 

226 days 1 5.5 GB

 Date: 10/19/19 16:18   in : Asian 

227 days 2 403.3 MB

 Date: 10/18/19 19:05   in : Asian 

228 days 3 1.8 GB

 Date: 10/16/19 11:08   in : Asian 

230 days 1 1.1 GB

 Date: 10/16/19 08:52   in : Asian 

231 days 2 399.6 MB

 Date: 10/15/19 08:49   in : Asian 

232 days 2 281.5 MB

 Date: 10/15/19 08:46   in : Asian 

232 days 1 1.1 GB

 Date: 10/15/19 05:23   in : Asian 

232 days 1 281.5 MB


Copyright © OnceSearch.com 2015-2019. OnceSearch.com provides only meta files (small .torrent files) on its web site, and hosts no actual file for download!!!