Direct Download KarupsHA.15.09.24.Mia.Pearl.Blowjob.XXX.720p.MP4-KTR torrent

download torrent
Size: 489.3 MB
Downloaded: 224
Hits: 491

KarupsHA.15.09.24.Mia.Pearl.Blowjob.XXX.720p.MP4-KTR
Genre.......: Adult
Files.......: 35
Video.......: MP4
Date........: 2015-09-24
URL.........: http://www.karupsha.com/

Video
ID                                       : 1
Format                                   : AVC
Format/Info                              : Advanced Video Codec
Format profile                           : [email protected]
Format settings, CABAC                   : No
Format settings, ReFrames                : 2 frames
Codec ID                                 : avc1
Codec ID/Info                            : Advanced Video Coding
Duration                                 : 13mn 28s
Bit rate                                 : 4 999 Kbps
Width                                    : 1 280 pixels
Height                                   : 720 pixels
Display aspect ratio                     : 16:9
Frame rate mode                          : Constant
Frame rate                               : 23.976 fps
Standard                                 : NTSC
Color space                              : YUV
Chroma subsampling                       : 4:2:0
Bit depth                                : 8 bits
Scan type                                : Progressive
Bits/(Pixel*Frame)                       : 0.226
Stream size                              : 482 MiB (98%)
Language                                 : English
Encoded date                             : UTC 1904-01-01 00:00:00
Tagged date                              : UTC 1904-01-01 00:00:00
Color range                              : Limited
Audio
ID                                       : 2
Format                                   : AAC
Format/Info                              : Advanced Audio Codec
Format profile                           : LC
Codec ID                                 : 40
Duration                                 : 13mn 28s
Bit rate mode                            : Variable
Bit rate                                 : 72.0 Kbps
Maximum bit rate                         : 74.8 Kbps
Channel(s)                               : 2 channels
Channel positions                        : Front: L R
Sampling rate                            : 44.1 KHz
Compression mode                         : Lossy
Stream size                              : 6.94 MiB (1%)
Language                                 : English
Encoded date                             : UTC 1904-01-01 00:00:00
Tagged date                              : UTC 1904-01-01 00:00:00


Related Torrents
Torrent Name   AGE FILES SIZE

 Date: 11/01/17 02:03   in : XXX 

24 days 1

 Date: 11/01/17 01:59   in : XXX 

24 days 1 1.1 GB

 Date: 11/01/17 01:53   in : XXX 

24 days 1 2.5 GB

 Date: 11/01/17 01:49   in : XXX 

24 days 1 1.3 GB

 Date: 11/01/17 01:41   in : XXX 

24 days 1 4.4 GB

 Date: 11/01/17 01:31   in : XXX 

24 days 2 1.5 GB

 Date: 11/01/17 01:28   in : XXX 

24 days 1 3.5 GB

 Date: 11/01/17 01:24   in : XXX 

24 days 1 1.8 GB

 Date: 11/01/17 01:24   in : XXX 

24 days 5 858.9 MB

 Date: 11/01/17 01:23   in : XXX 

24 days 1 1.6 GB

 Date: 11/01/17 01:11   in : XXX 

24 days 4 1 GB

 Date: 11/01/17 00:51   in : XXX 

24 days 1 952.7 MB