Direct Download KarupsHA.15.07.09.Kelly.Kitty.Hardcore.XXX.720p.MP4-KTR torrent

download torrent
Size: 515.1 MB
Downloaded: 309
Hits: 747

KarupsHA.15.07.09.Kelly.Kitty.Hardcore.XXX.720p.MP4-KTR
Genre.......: Adult
Files.......: 36
Video.......: MP4
Date........: 2015-07-09
URL.........: http://www.karupsha.com/

Video
ID                                       : 1
Format                                   : AVC
Format/Info                              : Advanced Video Codec
Format profile                           : [email protected]
Format settings, CABAC                   : No
Format settings, ReFrames                : 2 frames
Codec ID                                 : avc1
Codec ID/Info                            : Advanced Video Coding
Duration                                 : 14mn 11s
Bit rate                                 : 4 998 Kbps
Width                                    : 1 280 pixels
Height                                   : 720 pixels
Display aspect ratio                     : 16:9
Frame rate mode                          : Constant
Frame rate                               : 23.976 fps
Standard                                 : NTSC
Color space                              : YUV
Chroma subsampling                       : 4:2:0
Bit depth                                : 8 bits
Scan type                                : Progressive
Bits/(Pixel*Frame)                       : 0.226
Stream size                              : 507 MiB (98%)
Language                                 : English
Encoded date                             : UTC 1904-01-01 00:00:00
Tagged date                              : UTC 1904-01-01 00:00:00
Color range                              : Limited
Audio
ID                                       : 2
Format                                   : AAC
Format/Info                              : Advanced Audio Codec
Format profile                           : LC
Codec ID                                 : 40
Duration                                 : 14mn 11s
Bit rate mode                            : Constant
Bit rate                                 : 72.0 Kbps
Channel(s)                               : 2 channels
Channel positions                        : Front: L R
Sampling rate                            : 44.1 KHz
Compression mode                         : Lossy
Stream size                              : 7.31 MiB (1%)
Language                                 : English
Encoded date                             : UTC 1904-01-01 00:00:00
Tagged date                              : UTC 1904-01-01 00:00:00


Related Torrents
Torrent Name   AGE FILES SIZE

 Date: 04/27/17 23:47   in : XXX 

7 hours 1 1.1 GB

 Date: 04/27/17 23:44   in : XXX 

7 hours 1

 Date: 04/27/17 23:12   in : XXX 

8 hours 1

 Date: 04/27/17 22:55   in : XXX 

8 hours 1

 Date: 04/27/17 22:54   in : XXX 

8 hours 1 2.8 GB

 Date: 04/27/17 22:44   in : XXX 

8 hours 1 198.2 MB

 Date: 04/27/17 22:38   in : XXX 

8 hours 1 1.1 GB

 Date: 04/27/17 22:38   in : XXX 

8 hours 1

 Date: 04/27/17 22:19   in : XXX 

8 hours 1

 Date: 04/27/17 22:16   in : XXX 

8 hours 1

 Date: 04/27/17 22:09   in : XXX 

9 hours 1 2.6 GB

 Date: 04/27/17 21:48   in : XXX 

9 hours 5 2.1 GB