Direct Download JoyMii - Eveline D 720p mp4 21 May 2016 torrent

download torrent
Size: 437 MB
Downloaded: 58
Hits: 96

Video
ID                          : 1
Format                      : AVC
Format/Info                 : Advanced Video Codec
Format profile              : [email protected]
Format settings, CABAC      : No
Format settings, ReFrames   : 3 frames
Codec ID                    : avc1
Codec ID/Info               : Advanced Video Coding
Duration                    : 19mn 4s
Bit rate                    : 3 072 Kbps
Maximum bit rate            : 27.1 Mbps
Width                       : 1 280 pixels
Height                      : 720 pixels
Display aspect ratio        : 16:9
Frame rate mode             : Constant
Frame rate                  : 25.000 fps
Color space                 : YUV
Chroma subsampling          : 4:2:0
Bit depth                   : 8 bits
Scan type                   : Progressive
Bits/(Pixel*Frame)          : 0.133
Stream size                 : 419 MiB (96%)
Writing library             : Zencoder Video Encoding System
Audio
ID                          : 2
Format                      : AAC
Format/Info                 : Advanced Audio Codec
Format profile              : LC
Codec ID                    : 40
Duration                    : 19mn 4s
Bit rate mode               : Variable
Bit rate                    : 128 Kbps
Maximum bit rate            : 161 Kbps
Channel(s)                  : 2 channels
Channel positions           : Front: L R
Sampling rate               : 44.1 KHz
Frame rate                  : 43.066 fps (1024 spf)
Compression mode            : Lossy
Stream size                 : 17.5 MiB (4%)

NEW adulttorrent.org - Exclusive video only

Related Torrents
Torrent Name   AGE FILES SIZE

 Date: 06/01/18 00:15   in : XXX 

475 days 1

 Date: 06/01/18 00:12   in : XXX 

475 days 1

 Date: 06/01/18 00:09   in : XXX 

475 days 1

 Date: 06/01/18 00:07   in : XXX 

475 days 1

 Date: 06/01/18 00:04   in : XXX 

475 days 1

 Date: 06/01/18 00:03   in : XXX 

475 days 1

 Date: 06/01/18 00:02   in : XXX 

475 days 1

 Date: 06/01/18 00:02   in : XXX 

475 days 1

 Date: 05/31/18 23:59   in : XXX 

475 days 1

 Date: 05/31/18 23:51   in : XXX 

475 days 1

 Date: 05/31/18 23:51   in : XXX 

475 days 1

 Date: 05/31/18 23:50   in : XXX 

475 days 1